Help - Search - Members - Calendar
Full Version: Legendire - Sunchasers (2020)
Metal Area - Extreme Music Portal > Releases Area / Релизы > Archive
Samaritianin


*Artist: Legendire
*Album: Sunchasers
*Year: 2020
*Genre: Power Metal
*Country: Russian Federation
*Format: mp3@CBR320kbps
*Size: 94MB

Tracklist:
1. Dawn of War
2. Sunchasers
3. Ravenheart
4. Meteor Rain
5. Inner Fire
6. Memories
7. Brave New World
8. The Last Song
9. Unite and Decide (Dragonforce Tribute)
******************************
Total playing time: 40:34





Technical info

Input File: 05 - Inner Fire.mp3
Channels : 2
Sample Rate : 44100
Precision : 16-bit
Duration : 00:04:19.44 = 11441128 samples = 19457.7 CDDA sectors
File Size : 10.5M
Bit Rate : 324k
Sample Encoding: MPEG audio (layer I, II or III)
Comments :
Title=Inner Fire
Artist=Legendire
Album=Sunchasers
Tracknumber=5
Year=2020



[ Hidden Text ]
AHBAnep
https://music.yandex.ru/album/12819173
Неожиданно неплохо..
Dreamtale
Сыграно, очевидно, любителями павера 00-х для соответствующей аудитории. То бишь строго нишевый альбом. Мне зашло.
Сварог Барг
Инструментал хорош, вокалиста гнать в шею.
zauber1
Превьюшки заинтересовали. Вроде, типичный павер, но звук жирный, без пластмассы. Вокалист, к слову, вполне нормальный, отторжения не вызывает, даже на английском неплохо поёт.
Kitalter
неплохой альбом) Достаточно качественно всё сыграно, да и звук хорош. И это всё несмотря на то, что Россия - экзотическая страна для Метал-музыки в целом.
This is a "lo-fi" version of our main content. To view the full version with more information, formatting and images, please click here.
Invision Power Board © 2001-2021 Invision Power Services, Inc.