Help - Search - Members - Calendar
Full Version: Коса - Rehearsal 19.06.19 [demo] (2020)
Metal Area - Extreme Music Portal > Releases Area / Релизы > Archive
Абигор


*Artist: Коса
*Album: Rehearsal 19.06.19 [demo]
*Year: 2020
*Genre: Black Metal
*Country: Russian Federation
*Format: mp3@CBR320kbps
*Size: 38MB

Tracklist:
1. Spring Is Inevitable 04:39
2. Ugly 03:23
3. The Light Is Not Eternal 04:11
4. Black Goat 03:49
******************************
Total playing time: 16:02



Extended info
Дебютное демо проекта из Уфы. Смерти Коса была взведена в рамках репетиционной сессии вживую на кассету. Для поклонников "клаксонщины".

Вышло ограниченным тиражом в 13 копий.


Technical info

Input File: 02 - Ugly.mp3
Channels : 2
Sample Rate : 44100
Precision : 16-bit
Duration : 00:03:23.35 = 8967647 samples = 15251.1 CDDA sectors
File Size : 8.13M
Bit Rate : 320k
Sample Encoding: MPEG audio (layer I, II or III)
Comments :
Title=Ugly
Artist=Kocа
Album=Rehearsal 19.06.19
Tracknumber=02/04
Year=2020
Genre=Black Metal



[ Hidden Text ]
[ Hidden Text ]
noxspiritus
Послушал и получил своеобразное удовольствие (я большой ценитель демок, промок и прочих рехерсалов)
По факту здесь 100% репетиционка, звук соответсвующий, сыграно в один заход. Все искренне.
Без оценок. Зачёт
sethurius
И звук, и сама структура напоминает наргаротовкий "Orke", такой же грязный и разнузданно-циничный.
И, конечно же, изваянная в лоу-фай жерновах Песнь Радости и Счастья - Черный Козел, выползшая из скотомогильника...
Hell_Is_Here
Превью понравилось. Хорошая сырятина. 9.gif 20.gif
Daale
Чуть меньше недели назад слышал. Неплохой стаффчик, ничего не скажешь
Daale
RUDACHUR, Да охотно верю. Я все хочу написать товарищам с Танцев до небес, ибо они физы уже нескольким интересующим меня проектам печатают. Тут не гонка со временем, просто как факт.


ripper33
Шлёпёпань какая-то.
ent404
помню вроде был такой украинский блэковый проект.
Абигор
Added links by Cramloth
Cramloth
QUOTE(Абигор @ Dec 20 2020, 12:23:05) *
Added links by Cramloth

Sorry, I didn't realise you've already posted it hmm.gif
Victim of fate
ЦИТАТА(ripper33 @ Nov 22 2020, 05:45:25) *
Шлёпёпань какая-то.

просто бред 21.gif
This is a "lo-fi" version of our main content. To view the full version with more information, formatting and images, please click here.
Invision Power Board © 2001-2021 Invision Power Services, Inc.