Help - Search - Members - Calendar
Full Version: Margaret Read - Distress [demo] (2020)
Metal Area - Extreme Music Portal > Releases Area / Релизы > New Releases
smysl


*Artist: Margaret Read
*Album: Distress [demo]
*Year: 2020
*Genre: Depressive Black Metal
*Country: United Kingdom
*Format: mp3@CBR320kbps
*Size: 50MB

Tracklist:
1.With Sorrow 09:49
2.With Fear 02:23
3.With Sadness 09:41
******************************
Total playing time: 21:53



Technical info

Input File: 01 With Sorrow.mp3
Channels : 2
Sample Rate : 44100
Precision : 16-bit
Duration : 00:09:49.83 = 26011591 samples = 44237.4 CDDA sectors
File Size : 23.7M
Bit Rate : 322k
Sample Encoding: MPEG audio (layer I, II or III)
Comments :
Title=With Sorrow
Artist=Margaret Read
Album=Distress
Tracknumber=1
Year=2020
Genre=Black Metal



[ Hidden Text ]
Victim of fate
на компе за 20000 рублей можно лучше записать)))
This is a "lo-fi" version of our main content. To view the full version with more information, formatting and images, please click here.
Invision Power Board © 2001-2021 Invision Power Services, Inc.