Help - Search - Members - Calendar
Full Version: Crotalus - The Practice Of Burial [ep] (2020)
Metal Area - Extreme Music Portal > Releases Area / Релизы > New Releases
Samaritianin


*Artist: Crotalus
*Album: The Practice Of Burial [ep]
*Year: 2020
*Genre: Death Metal
*Country: United States
*Format: mp3@CBR320kbps
*Size: 40MB

Tracklist:
01. Empire of Nothing
02. Human Butcher
03. Of Solace and Grief
04. The Practice of Burial
******************************
Total playing time: 17:11



Technical info

Input File: 03. Of Solace and Grief.mp3
Channels : 2
Sample Rate : 44100
Precision : 16-bit
Duration : 00:04:18.68 = 11407832 samples = 19401.1 CDDA sectors
File Size : 10.5M
Bit Rate : 323k
Sample Encoding: MPEG audio (layer I, II or III)
Comments :
Title=Of Solace and Grief
Artist=Crotalus
Album=The Practice of Burial
Tracknumber=3
Year=2020
Discnumber=1/1



[ Hidden Text ]
oathzine
Flac

[ Hidden Text ]
This is a "lo-fi" version of our main content. To view the full version with more information, formatting and images, please click here.
Invision Power Board © 2001-2021 Invision Power Services, Inc.