*Artist: Ardente
*Album: Derrière Les Remparts [ep]
*Year: 2020
*Genre: Black Metal
*Country: France
*Format: mp3@CBR320kbps
*Size: 45MB

Tracklist:
1.Sous les Flèches Déferlantes 09:22
2.Interlude 03:06
3.Derrière les Remparts 06:59
******************************
Total playing time: 19:27



Extended info
Instrumental


Technical info

Input File: 01 Sous les Flèches Déferlantes.mp3
Channels : 2
Sample Rate : 44100
Precision : 16-bit
Duration : 00:09:22.42 = 24802898 samples = 42181.8 CDDA sectors
File Size : 22.6M
Bit Rate : 321k
Sample Encoding: MPEG audio (layer I, II or III)
Comments :
Title=Sous les Flèches Déferlantes
Artist=Ardente
Album=Derrière les Remparts (EP)
Tracknumber=1
Year=2020
Genre=Black Metal



[ Hidden Text ]