*Artist: Pyreficativm
*Album: Erotognosticism
*Year: 2020
*Genre: Black Metal
*Country: Chile
*Format: mp3@CBR320kbps
*Size: 132MB

Tracklist:
1.Phallus Khedesh 04:10
2.Tetramorphosophia 08:14
3.Hypostasis Kênomah 06:53
4.Erset Ahnnamutti Kâshaj 10:16
5.Altare de Algolagnia 04:34
6.Obombrastasis Dinoia 08:34
7.Ishet ha Azaazyl 15:05
******************************
Total playing time: 57:46




Technical info

Input File: 02 Tetramorphosophia.mp3
Channels : 2
Sample Rate : 44100
Precision : 16-bit
Duration : 00:08:14.97 = 21828265 samples = 37122.9 CDDA sectors
File Size : 19.9M
Bit Rate : 321k
Sample Encoding: MPEG audio (layer I, II or III)
Comments :
Title=Tetramorphosophia
Artist=Pyreficativm
Album=Erotognosticism
Tracknumber=2
Year=2020
Genre=Black Metal



[ Hidden Text ]