Help - Search - Members - Calendar
Full Version: Ildrasun - Kingdom On The Shore (2020)
Metal Area - Extreme Music Portal > Releases Area / Релизы > Archive
vasilisk


*Artist: Ildrasun
*Album: Kingdom On The Shore
*Year: 2020
*Genre: Post-Black Metal
*Country: United States
*Format: mp3@CBR320kbps
*Size: 96MB

Tracklist:
1. Kingdom on the Shore
2. Impending Storm
3. Out to Sea
4. Adrift
5. Ideals
6. Summit of Lies
7. Descent into the Wood
8. Death and Rebirth
9. The Holy Temple
******************************
Total playing time: 40:55

Technical info

Input File: 01 - Kingdom on the Shore.mp3
Channels : 2
Sample Rate : 44100
Precision : 16-bit
Duration : 00:05:24.07 = 14291311 samples = 24305 CDDA sectors
File Size : 13.2M
Bit Rate : 326k
Sample Encoding: MPEG audio (layer I, II or III)
Comments :
Title=Kingdom on the Shore
Artist=Ildrasun
Album=Kingdom on the Shore
Tracknumber=1
Year=2020



[ Hidden Text ]
Andrew
This is a "lo-fi" version of our main content. To view the full version with more information, formatting and images, please click here.
Invision Power Board © 2001-2021 Invision Power Services, Inc.