Help - Search - Members - Calendar
Full Version: Ogof - Full Moon Black Shadow (2020)
Metal Area - Extreme Music Portal > Releases Area / Релизы > Archive
Абигор


*Artist: Ogof
*Album: Full Moon Black Shadow
*Year: 2020
*Genre: Raw Black Metal
*Country: United Kingdom
*Format: mp3@CBR320kbps
*Size: 100MB

Tracklist:
1. The Spectre 01:38
2. Source Of All Ecclesiastical Evil 03:12
3. Bringer Of Sacred Offensive 05:15
4. Altar Of The Sacrifice Cavens 03:42
5. Darkness Provoked 05:36
6. Devil's Flock Devil's Rituals 00:32
7. Talismans Of Diobology 00:54
8. Manifestations And Torment 05:28
9. Candles 04:43
10. Poisoning Wlls 03:50
11. Blood Cosmology 01:35
12. Satan 05:04
******************************
Total playing time: 41:29



Extended info
Death Kvlt Productions


Technical info

Input File: 05 - Darkness Provoked.mp3
Channels : 2
Sample Rate : 44100
Precision : 16-bit
Duration : 00:05:36.40 = 14835108 samples = 25229.8 CDDA sectors
File Size : 13.5M
Bit Rate : 320k
Sample Encoding: MPEG audio (layer I, II or III)
Comments :
Title=Darkness Provoked
Artist=Ogof
Album=Full Moon Black Shadow
Tracknumber=5
Year=2020



[ Hidden Text ]
Storky
Звук и атмосфера норм, но мелодии примитивные...
This is a "lo-fi" version of our main content. To view the full version with more information, formatting and images, please click here.
Invision Power Board © 2001-2021 Invision Power Services, Inc.