*Artist: Doktor Triceratops
*Album: 999 [demo]
*Year: 1999
*Genre: Thrash/Groove Metal
*Country: Czech Republic
*Format: mp3@CBR320kbps
*Size: 46MB

Tracklist:
1. Zelená Plíseň 03:18
2. Co By Se Stalo 04:12
3. Whisky Club 04:58
4. Milford Tea 02:30
5. Druhá Tráva 03:19
6. Na Rohu Belgický 02:28
******************************
Total playing time: 20:45



Technical info

Input File: 01-Zelena Plisen.mp3
Channels : 2
Sample Rate : 44100
Precision : 16-bit
Duration : 00:03:18.43 = 8750895 samples = 14882.5 CDDA sectors
File Size : 8.00M
Bit Rate : 322k
Sample Encoding: MPEG audio (layer I, II or III)
Comments :
Title=Zelena plisen
Artist=DOKTOR TRICERATOPS
Album=999 (Demo)
Tracknumber=01
Year=1999
Genre=Thrash Metal



[ Hidden Text ]