Help - Search - Members - Calendar
Full Version: Azanul - Waar Alchemisten Regeren [demo] (2020)
Metal Area - Extreme Music Portal > Releases Area / Релизы > New Releases
Velmi


*Artist: Azanul
*Album: Waar Alchemisten Regeren [demo]
*Year: 2020
*Genre: Black Metal
*Country: Netherlands
*Format: mp3@CBR320kbps
*Size: 51MB

Tracklist:
1. Weemoed 04:24
2. Vervloekt 06:37
3. De kracht ontkend 04:40
4. Waar alchemisten regeren 06:25
******************************
Total playing time: 22:06



Extended info
Heidens Hart

Technical info

Input File: 02. Vervloekt.mp3
Channels : 2
Sample Rate : 44100
Precision : 16-bit
Duration : 00:06:34.71 = 17406491 samples = 29602.9 CDDA sectors
File Size : 15.9M
Bit Rate : 321k
Sample Encoding: MPEG audio (layer I, II or III)
Comments :
Title=Vervloekt
Artist=Azanul
Album=Waar alchemisten regeren
Tracknumber=02/04
Year=2020
Genre=Black Metal



[ Hidden Text ]
Storky
true_black.gif true_black.gif
This is a "lo-fi" version of our main content. To view the full version with more information, formatting and images, please click here.
Invision Power Board © 2001-2021 Invision Power Services, Inc.