*Artist: Shiver
*Album: Bones.Spirit.Ashes.Madness [ep]
*Year: 2014
*Genre: Death/Groove Metal
*Country: Israel
*Format: mp3@CBR128kbps
*Size: 19MB

Tracklist:
1. Serve A Purpose 02:47
2. Collecting Parts 02:21
3. Piece Of Us 03:33
4. Preach 03:31
5. Too Much To Bear 04:08
6. Combined (feat. Tiran Ezra of Ferium) 03:57
******************************
Total playing time: 20:17



Technical info

Input File: 6 - Combined (feat. Tiran Ezra of Ferium).mp3
Channels : 2
Sample Rate : 44100
Precision : 16-bit
Duration : 00:03:58.03 = 10497167 samples = 17852.3 CDDA sectors
File Size : 3.81M
Bit Rate : 128k
Sample Encoding: MPEG audio (layer I, II or III)
Comments :
Title=Combined (feat. Tiran Ezra of Ferium)
Artist=Shiver
Album=Bones.Spirit.Ashes.Madness (EP)
Tracknumber=6
Year=2014
Genre=Metal



[ Hidden Text ]