Help - Search - Members - Calendar
Full Version: Arkan Azid - Astralsuizid [ep] (2020)
Metal Area - Extreme Music Portal > Releases Area / Релизы > Archive
smysl


*Artist: Arkan Azid
*Album: Astralsuizid [ep]
*Year: 2020
*Genre: Black/Death Metal/Noise
*Country: Germany
*Format: mp3@CBR320kbps
*Size: 44MB

Tracklist:
1. Astralsuizid 03:17
2. Halls of Maliciousness 02:57
3. 666 Blackholes of Triumph 03:21
4. Arkan Azid 03:05
5. Üstün Adam 02:52
******************************
Total playing time: 15:32




Technical info

Input File: 01 ASTRALSUIZID.mp3
Channels : 2
Sample Rate : 44100
Precision : 16-bit
Duration : 00:03:17.08 = 8691272 samples = 14781.1 CDDA sectors
File Size : 8.18M
Bit Rate : 332k
Sample Encoding: MPEG audio (layer I, II or III)
Comments :
Title=ASTRALSUIZID
Artist=ARKAN AZID
Album=ASTRALSUIZID
Tracknumber=1
Year=2020
Genre=Black Metal/Noise



[ Hidden Text ]
Vitald
Грязный подвально-канализационный экспериментальный шум с редкими акцентированными, членораздельными звуками.
Vitald
После второго раза (моё сообщение выше подтёрли какого-то хрена и укоротили его вдвое, так что смысл постксриптума будет не совсем ясен; ну да по хер), однако, хочется "обазаться" этим снова. Был не прав. Отличная экспериментальная работа.
This is a "lo-fi" version of our main content. To view the full version with more information, formatting and images, please click here.
Invision Power Board © 2001-2022 Invision Power Services, Inc.