Help - Search - Members - Calendar
Full Version: Lucifer Impaled - Blood​.​ War​.​ Supremacy [ep] (2020)
Metal Area - Extreme Music Portal > Releases Area / Релизы > Archive
GorAtheist


*Artist: Lucifer Impaled
*Album: Blood​.​ War​.​ Supremacy [ep]
*Year: 2020
*Genre: Unblack Metal
*Country: Canada
*Format: mp3@CBR320kbps
*Size: 33MB

Tracklist:
1. Armageddon 00:59
2. Legions of the Cross 04:14
3. Winds of Lust 03:07
4. Nuclear Desecration of Satanic Might 02:33
5. Blood. War. Supremacy. 03:53
******************************
Total playing time: 14:46





Technical info

Input File: 05 Blood.War.Supremacy.mp3
Channels : 2
Sample Rate : 44100
Precision : 16-bit
Duration : 00:03:56.29 = 10420389 samples = 17721.8 CDDA sectors
File Size : 9.56M
Bit Rate : 324k
Sample Encoding: MPEG audio (layer I, II or III)
Comments :
Title=Blood.War.Supremacy
Artist=Lucifer Impaled
Album=Blood.War.Supremacy
Tracknumber=5
Year=2020



[ Hidden Text ]
Unknown
Lyrical themes: Christianity 22.gif
Djarovich
"Christian Black Metal" уже звучит как профанация и посмешище (овцы за волков), а "Козлятина"/war metal так вообще без комментариев))))
Парнишка наслушался Revenge и думает что сможет совместить свои раболепные верования с музыкой, чьей сутью и духом является открытое Восстание и попрание многих ограничений, сложившихся в обществе на протяжении веков.
Выглядит комично, как попугайчик ара, пытающийся косить под ястреба.
rickzammuto
Should be banned or called unblack! t3741.gif poster_ban.gif poster_ban.gif offtopic2.gif 23.gif 23.gif
Njelfur
В реалиах насквозь атеистического прогрессивного западного общества быть христианином куда больше "ребеллион", чем быть маминым ссатанистом.
rominow
я надеюсь он взял благословение?
nsk2008
Перевернутые кресты - это, видать, какое-то новое веяние в анблэке.
Storky
ЦИТАТА(Njelfur @ Sep 13 2021, 22:56:41) *
В реалиах насквозь атеистического прогрессивного западного общества быть христианином куда больше "ребеллион", чем быть маминым ссатанистом.

Хаха ахахахахаха
rickzammuto
Western society is 90% Christian; no "rebellion" here!

QUOTE(Njelfur @ Sep 13 2021, 15:56:41) *
В реалиах насквозь атеистического прогрессивного западного общества быть христианином куда больше "ребеллион", чем быть маминым ссатанистом.
This is a "lo-fi" version of our main content. To view the full version with more information, formatting and images, please click here.
Invision Power Board © 2001-2021 Invision Power Services, Inc.