*Artist: Astral Winter
*Album: Perdition Ii
*Year: 2020
*Genre: Ambient/Acoustic
*Country: Australia
*Format: mp3@CBR320kbps
*Size: 87MB

Tracklist:
1. Corridors Of Time 04:10
2. Light Of The Cosmos 05:42
3. Ethereal Light 02:07
4. Fading From The Skies 04:00
5. Dreams Of The Stars 05:11
6. Crystal Tears 01:54
7. The Celestial Age 03:29
8. At The Gates Of Creation 04:58
9. Withering Illusion 06:29
******************************
Total playing time: 38:00

Preview 1

Technical info

Input File: 06 - Crystal Tears.mp3
Channels : 2
Sample Rate : 44100
Precision : 16-bit
Duration : 00:01:54.24 = 5038072 samples = 8568.15 CDDA sectors
File Size : 4.57M
Bit Rate : 320k
Sample Encoding: MPEG audio (layer I, II or III)
Comments :
Title=Crystal Tears
Artist=Astral Winter
Album=Perdition II
Tracknumber=06
Year=2020



[ Hidden Text ]