Help - Search - Members - Calendar
Full Version: Rhys Fulber - Brutal Nature (2021)
Metal Area - Extreme Music Portal > Releases Area / Релизы > New Releases > Unformat R:
mirotvorets


*Artist: Rhys Fulber
*Album: Brutal Nature
*Year: 2021
*Genre: Industrial Techno/Ebm/Ambient Techno/Electro-Industrial
*Country: Canada
*Format: mp3@CBR320kbps
*Size: 150MB

Tracklist:
1.Central State Institute 06:28
2.Chemical 05:37
3.Marginalized 06:40
4.Fragility 06:32
5.Pyrrhic Act 09:07
6.Pressure 05:57
7.Night Render 07:15
8.Rogue Minority 06:11
9.Nature Reclaims 06:07
10.Stare at the Sun 05:44
******************************
Total playing time: 1:05:38



Technical info

Input File: 02. Chemical.mp3
Channels : 2
Sample Rate : 44100
Precision : 16-bit
Duration : 00:05:37.89 = 14900905 samples = 25341.7 CDDA sectors
File Size : 13.5M
Bit Rate : 320k
Sample Encoding: MPEG audio (layer I, II or III)
Comments :
Title=Chemical
Artist=Rhys Fulber
Album=Brutal Nature
Tracknumber=02/10
Year=2021



[ Hidden Text ]
vosmidesijatye
Это приближённый к Фир Фактори?
kefka
Фир Фактори?
Frontline Assembly maybe... but it's darker and more ambient/cinematic, industrial techno in some ways
vosmidesijatye
ЦИТАТА(kefka @ Nov 27 2021, 19:52:46) *
Фир Фактори?
Frontline Assembly maybe...


Yeah, FLA...I remembered user Anger and his two favourite bands, so mismatched a lil` bit 1488.gif
as71
Какой он там еще приближённый? Хотя смутно припоминаю, что когда-то давно в связи с ФФ его имя упоминалось - на архивах написано, что было это в 1997 году, наверное, в записи Remanufacture участвовал. Но музыка ничего общего с ФФ не имеет.
mirotvorets
ЦИТАТА(as71 @ Nov 27 2021, 21:01:29) *
Какой он там еще приближённый? Хотя смутно припоминаю, что когда-то давно в связи с ФФ его имя упоминалось - на архивах написано, что было это в 1997 году, наверное, в записи Remanufacture участвовал. Но музыка ничего общего с ФФ не имеет.


Восьмидесятые отчасти прав. Rhys Fulber сотрудничал со многими известными метал коллективами - Fear Factory, Waltari, Machine Head, продюсировал несколько альбомов Paradise Lost. Если интересно, на вики - расписано.
sethurius
В общем то, вещь крутейшая, особенно в контрасте с ambient составляющей, воспроизводящей нарастающее волнение в семплах и провоцирующей бурю. Темное техно в заброшенных индустриальных клоаках, синтез механики и вариативность природной стихии. Симбиоз рождает философский уклон единения и распада.
Замешанный в стене агрессивных ритмов бэд-триповый экскурс мешает отвлечься от созерцания, поэтому длинные вещи слушать довольно утомительно. Автор экспериментирует со структурой, удаляясь от последовательностей и, как правило, очень быстро перенаправляет ритмы в другое русло. Манипулятор сознания и бессовестного шантажа, он умело держит в руках метаморфозы, постоянно извлекает гармонию и дает отдохнуть. На миг.
p4B10
QUOTE(sethurius @ Nov 27 2021, 19:29:29) *
В общем то, вещь крутейшая, особенно в контрасте с ambient составляющей, воспроизводящей нарастающее волнение в семплах и провоцирующей бурю. Темное техно в заброшенных индустриальных клоаках, синтез механики и вариативность природной стихии. Симбиоз рождает философский уклон единения и распада.
Замешанный в стене агрессивных ритмов бэд-триповый экскурс мешает отвлечься от созерцания, поэтому длинные вещи слушать довольно утомительно. Автор экспериментирует со структурой, удаляясь от последовательностей и, как правило, очень быстро перенаправляет ритмы в другое русло. Манипулятор сознания и бессовестного шантажа, он умело держит в руках метаморфозы, постоянно извлекает гармонию и дает отдохнуть. На миг.

серьезно?
Hell_Is_Here
Отлично подошло бы к Half-Life 2 как саундтрэк. 20.gif
This is a "lo-fi" version of our main content. To view the full version with more information, formatting and images, please click here.
Invision Power Board © 2001-2022 Invision Power Services, Inc.