Help - Search - Members - Calendar
Full Version: Spine Wrench - Spine Wrench [ep] (1994)
Metal Area - Extreme Music Portal > Releases Area / Релизы > New Releases > Unformat R:
YBergen


*Artist: Spine Wrench
*Album: Spine Wrench [ep]
*Year: 1994
*Genre: Industrial Metal
*Country: United Kingdom
*Format: mp3@CBR256kbps
*Size: 31MB

Tracklist:
01. Soulscape 04:25
02. Body Socket 05:23
03. Black Eye Burnout 08:30
******************************
Total playing time: 18:18

Technical info

Input File: Spine Wrench - Soulscape.mp3
Channels : 2
Sample Rate : 44100
Precision : 16-bit
Duration : 00:04:26.03 = 11731967 samples = 19952.3 CDDA sectors
File Size : 8.51M
Bit Rate : 256k
Sample Encoding: MPEG audio (layer I, II or III)
Comments :
Title=Soulscape
Artist=Spine Wrench
Album=Spine Wrench
Tracknumber=1
Year=1994
Genre=Industrial Metal



[ Hidden Text ]
Hell_Is_Here
This is a "lo-fi" version of our main content. To view the full version with more information, formatting and images, please click here.
Invision Power Board © 2001-2022 Invision Power Services, Inc.