Help - Search - Members - Calendar
Full Version: Snot - Get Some (1997)
Metal Area - Extreme Music Portal > Releases Area / Релизы > New Releases > Unformat R:
Immolator


*Artist: Snot
*Album: Get Some
*Year: 1997
*Genre: Nu Metal/Funk Metal/Hardcore Punk
*Country: United States
*Format: mp3@CBR320kbps
*Size: 118MB

Tracklist:
01. Snot – 3:23
02. Stoopid – 3:53
03. Joy Ride – 2:26
04. The Box – 3:25
05. Snooze Button – 4:17
06. 313 – 2:25
07. Get Some – 4:56
08. Deadfall – 2:19
09. I Jus' Lie – 3:34
10. Get Some O' Deez – 0:58
11. Unplugged – 4:11
12. Tecato – 4:30
13. Mr. Brett (feat. Theo Kogan) – 2:13
14. Get Some Keez – 2:46
15. My Balls – 2:58
******************************
Total playing time: 48:14

Extended info



Technical info

Input File: 01 - Snot.mp3
Channels : 2
Sample Rate : 44100
Precision : 16-bit
Duration : 00:03:22.12 = 8913624 samples = 15159.2 CDDA sectors
File Size : 8.48M
Bit Rate : 336k
Sample Encoding: MPEG audio (layer I, II or III)
Comments :
Title=Snot
Artist=Snot
Album=Get Some
Tracknumber=1/15
Year=1997
Genre=Funk Metal



[ Hidden Text ]
Emm Human
Отменейший релиз! На заре своего увлечения рок-музыкой любил слушать этот альбом. Забойный new school hardcore (у меня кстати на кассете с ним по диагонали была надпись "Best hardcore of new school!!!") местами хорошо приправленный грувом.

Общая концепция аранжировок очень оригинально разбавлена релаксовыми инструменталами типа "Get Some O' Deez" 27.gif

Даже прямо сейчас захотелось тряхнуть пыльными штанами и послушать.
Immolator
Если бы вокалист так тупо не разбился, думаю из этой группы получилось бы нечто невообразимое.
Emm Human
Ну в этом стиле - вряд ли.

Хотя, возможно я слишком критично сказал, но на мой взгляд, если бы они так и дальше играли... при всей крутизне, это бы получился хардкорный Red Hot Chilli Peppers.

ЦИТАТА
08. Deadfall – 2:19

До сих пор охота прыгать с разбегу об шкаф от припева! metaler.gif
vosmidesijatye
Музло слушать не буду, но обложка здесь - весела и задорна.

Интересно, чтобы Ангар тут вбросил 15.gif
Emm Human
ЦИТАТА(vosmidesijatye @ Jan 23 2022, 19:47:43) *
Музло слушать не буду

И зря. Лишишь себя задорного настроения на день!

ЦИТАТА(vosmidesijatye @ Jan 23 2022, 19:47:43) *
Интересно, чтобы Ангар тут вбросил 15.gif

Ну если бы он сказал, что не в курсе про этот альбом - значит не такой он был бы знаток направлений с грувовой инфлюенцией.
vosmidesijatye
ЦИТАТА(Emm Human @ Jan 23 2022, 14:48:54) *
И зря. Лишишь себя задорного настроения на день!


Отчего ж? Настроение вполне задорное, ибо YoungBoy Never Broke Again c новым альбомом Colors качает будь здоров! bye.gif
Emm Human
Да ты не спорь, а слухани!
Immolator
ЦИТАТА(vosmidesijatye @ Jan 23 2022, 14:47:43) *
Музло слушать не буду, но обложка здесь - весела и задорна.

Интересно, чтобы Ангар тут вбросил 15.gif

Пса звали Добс, он в клипе еще есть, погиб вместе с Линном Стрейтом (вокалист) в автокатастрофе.
This is a "lo-fi" version of our main content. To view the full version with more information, formatting and images, please click here.
Invision Power Board © 2001-2022 Invision Power Services, Inc.