Help - Search - Members - Calendar
Full Version: Zeit - The World Is Nothing (2015)
Metal Area - Extreme Music Portal > Releases Area / Релизы > New Releases > Unformat R:
Evgundel


*Artist: Zeit
*Album: The World Is Nothing
*Year: 2015
*Genre: Chaotic Hardcore
*Country: Italy
*Format: mp3@CBR320kbps
*Size: 57MB

Tracklist:
1. World And Distances 03:22
2. Weaving 01:41
3. Distance And Difference 02:49
4. Disguised 00:44
5. Chasing The Void 02:54
6. Tautologies 02:09
7. Lack Of Parts 01:31
8. No Conception 03:16
9. The Walls Of The World 03:30
10. Past Meanings 01:29
******************************
Total playing time: 23:30






Extended info
Line-up:
Sebastiano Busato - vocals (Charlie Brown [Ita], Dødehender, Sein [Ita], ex-Anbruch)
Alessandro Maculan - guitar (ex-Euthanasia [Ita, VE]/As The Sun)
Gabriele Tesolin - bass (ex-Anbruch)
Francesco Begotti - drums (Charlie Brown [Ita], Dødehender, Jetzt [Ita], Sein [Ita], ex-Anbruch, ex-Euthanasia [Ita, VE]/As The Sun, ex-Seventh [Ita])

Guest vocal on track 6 by Fabio Favaretto.


Technical info

Input File: 02 Weaving.mp3
Channels : 2
Sample Rate : 44100
Precision : 16-bit
Duration : 00:01:41.75 = 4487263 samples = 7631.4 CDDA sectors
File Size : 4.19M
Bit Rate : 330k
Sample Encoding: MPEG audio (layer I, II or III)
Comments :
Title=Weaving
Artist=Zeit
Album=The World Is Nothing
Tracknumber=2
Year=2015
Genre=Chaotic Hardcore



[ Hidden Text ]
Vitald
Формат, особенно на фоне двух рокг говно-группок, что сейчас по ним отписался и которые находятся в форматном разделе, а не здесь.
Сам стафф - годнота на диссонансах.
This is a "lo-fi" version of our main content. To view the full version with more information, formatting and images, please click here.
Invision Power Board © 2001-2022 Invision Power Services, Inc.