Help - Search - Members - Calendar
Full Version: Aethyss - The Void [ep] (2022)
Metal Area - Extreme Music Portal > Releases Area / Релизы > Archive
necroscum


*Artist: Aethyss
*Album: The Void [ep]
*Year: 2022
*Genre: Progressive Metal
*Country: United States
*Format: mp3@CBR320kbps
*Size: 69MB

Tracklist:
01. Solstitium 8:33
02. Reflections 8:48
03. The Cycle 12:39
******************************
Total playing time: 30:00


Preview 2


Technical info

Input File: 02 - Reflections.mp3
Channels : 2
Sample Rate : 44100
Precision : 16-bit
Duration : 00:08:48.10 = 23289078 samples = 39607.3 CDDA sectors
File Size : 21.3M
Bit Rate : 322k
Sample Encoding: MPEG audio (layer I, II or III)
Comments :
Title=Reflections
Artist=Aethyss
Album=The Void
Tracknumber=2
Year=2022
Discnumber=1/1



[ Hidden Text ]
silentstorm
можно бы перезалить?
This is a "lo-fi" version of our main content. To view the full version with more information, formatting and images, please click here.
Invision Power Board © 2001-2023 Invision Power Services, Inc.