Help - Search - Members - Calendar
Full Version: Kalpa - The Path Of The Eternal Years (2002)
Metal Area - Extreme Music Portal > Releases Area / Релизы > Archive > Low Bitrate Archive (read only)
macchipazzi


*Artist: Kalpa
*Album: The Path Of The Eternal Years
*Year: 2002
*Genre: Black Metal
*Country: South Korea
*Format: mp3@192
*Size: 49 MB

Tracklist:
1. Summon the War 6:16
2. Hemisphere in Mortality 6:10
3. Black Souls of the Fullmoon 7:58
4. The Path of the Eternal Years 15:56
*************************
Total playing time: 36:20

Encoder: FhG (Stereo)

Technical info

Input File: 04 The Path of the Eternal Years.mp3
Channels : 2
Sample Rate : 44100
Precision : 16-bit
Duration : 00:15:56.45 = 42179313 samples = 71733.5 CDDA sectors
File Size : 23.1M
Bit Rate : 193k
Sample Encoding: MPEG audio (layer I, II or III)
Comments :
Title=The Path of the Eternal Years
Artist=Kalpa
Album=The Path of Eternal Years
Tracknumber=4
Year=2002
Genre=metal
Discnumber=1/South Korea



[ Hidden Text ]
macchipazzi
reuploaded
einherjer
ЦИТАТА(macchipazzi @ Jul 20 2009, 23:10:41) *
reuploaded


Many thanx!
Borderline1991
mirror [ Hidden Text ]
INDARKNESS
CBR320kbps flac rip [ Hidden Text ]
This is a "lo-fi" version of our main content. To view the full version with more information, formatting and images, please click here.
Invision Power Board © 2001-2019 Invision Power Services, Inc.