Printable Version of Topic

Click here to view this topic in its original format

Metal Area - Extreme Music Portal _ Archive _ Totenwolf - Hateful North (2007)

Posted by: Tiamtu Jul 18 2012, 20:01:45

http://metalarea.org/images/audiocovers/2012_Jul/acov_tid177737.JPG

*Artist: Totenwolf
*Album: Hateful North
*Year: 2007
*Genre: Black Metal
*Country: Russian Federation
*Format: mp3@CBR320kbps
*Size: 83MB

Tracklist:
1.In Northern Darkness
2.Werewolf
3.In Fly Over The North
4.Autumn Opened Winter Gates
5.Hateful North
6.Full Moon In Fog
******************************
Total playing time: 37:13

Extended info



Input File: 06 Full Moon In Fog.mp3
Channels : 2
Sample Rate : 44100
Precision : 16-bit
Duration : 00:02:57.42 = 7824354 samples = 13306.7 CDDA sectors
File Size : 7.97M
Bit Rate : 360k
Sample Encoding: MPEG audio (layer I, II or III)
Comments :
Title=Full Moon In Fog
Artist=Totenwolf
Album=Hateful North
Tracknumber=6
Year=2007
Genre=Black Metal



[ Hidden Text ]

Posted by: Constantinus I Jul 19 2012, 05:57:47

not bad. true_black.gif

Posted by: Bekkerev Jul 19 2012, 10:56:09

В действительности, надоело слушать компьютерное качество. От него воротит уже. Ничего здесь хорошего нет.

ЦИТАТА
1.In Northern Darkness
2.Werewolf
3.In Fly Over The North
4.Autumn Opened Winter Gates
5.Hateful North
6.Full Moon In Fog
Что это? 23.gif Где-то все это уже было 21.gif
Риффы скучные и не новые. Здесь и Burzum и Darkthrone. Напомнило аналогичный шлак "Shadows Ground (Ukr) - In Eternal Coldness Of The Night", только немного разнообразней. Качество от "Darkthrone - Under A Funeral Moon". Скучно же.

Posted by: Corpse_Of_The_Christ Jul 22 2012, 10:45:25

hmm.gif надо будет их на досуге распробовать...

Posted by: Ildjarn Sep 2 2012, 10:48:18

Да, неплохо так слушается, если любишь трю... Да и инструменты вроде живые. Одно из немногих росиянских формаций, что мне понравилось за посл. время.

Posted by: Fryz Sep 2 2012, 10:49:57

ЦИТАТА(Bekkerev @ Jul 19 2012, 15:56:09) *
В действительности, надоело слушать компьютерное качество. От него воротит уже. Ничего здесь хорошего нет.
Что это? 23.gif Где-то все это уже было 21.gif
Риффы скучные и не новые. Здесь и Burzum и Darkthrone. Напомнило аналогичный шлак "Shadows Ground (Ukr) - In Eternal Coldness Of The Night", только немного разнообразней. Качество от "Darkthrone - Under A Funeral Moon". Скучно же.

Погоди, ты что, только что на Under A Funeral Moon наехал?

Powered by Invision Power Board
© Invision Power Services