Printable Version of Topic

Click here to view this topic in its original format

Metal Area - Extreme Music Portal _ Archive _ Six Feet Under - Eruption (1984)

Posted by: nbhfy Aug 5 2012, 14:35:26

http://metalarea.org/images/audiocovers/2012_Aug/acov_tid179017.jpg

*Artist: Six Feet Under
*Album: Eruption
*Year: 1984
*Genre: Heavy Metal/Hard Rock
*Country: Sweden
*Format: mp3@CBR320kbps
*Size: 82MB

Tracklist:
1. We are Together 03:43
2. I Want Your Love 03:15
3. Candle in the Dark 04:39
4. Hot Wheels 03:42
5. All Night Long 03:51
6. Mean Business 03:33
7. Thunder and Lightning 03:20
8. I Lead My Life 04:36
9. One Night Stands 03:30
10. Down the Alley 03:22
******************************
Total playing time: 37:31

Extended info



Input File: 02 из Six Feet Under - Eruption.mp3
Channels : 2
Sample Rate : 44100
Precision : 16-bit
Duration : 00:03:17.82 = 8723862 samples = 14836.5 CDDA sectors
File Size : 7.91M
Bit Rate : 320k
Sample Encoding: MPEG audio (layer I, II or III)
Comments :
Title=I want your love
Artist=Six Feet Under
Album=Eruption
Tracknumber=02



[ Hidden Text ]

Powered by Invision Power Board
© Invision Power Services