Printable Version of Topic

Click here to view this topic in its original format

Metal Area - Extreme Music Portal _ Archive _ Poison Mask - Graveyard World [ep] (2012)

Posted by: ancientlair Sep 4 2012, 22:06:57

http://metalarea.org/images/audiocovers/2012_Sep/acov_tid181132.jpg

*Artist: Poison Mask
*Album: Graveyard World [ep]
*Year: 2012
*Genre: Blackened Thrash Metal/Punk
*Country: Finland / Italy
*Format: mp3@CBR320kbps
*Size: 35MB

Tracklist:
1. Graveyard World 03:02
2. Total Cataclysm 03:16
3. Dead to this Race 02:43
4. Incoming Extinction 03:02
******************************
Total playing time: 12:03

http://www.myspace.com/poisonmask
http://poisonmask.bandcamp.com/

Extended info



Input File: 2. Total Cataclysm.mp3
Channels : 2
Sample Rate : 44100
Precision : 16-bit
Duration : 00:03:16.76 = 8676984 samples = 14756.8 CDDA sectors
File Size : 7.87M
Bit Rate : 320k
Sample Encoding: MPEG audio (layer I, II or III)
Comments :
Title=Total Cataclysm
Artist=Poison Mask
Album=Graveyard World
Tracknumber=2
Year=2012
Genre=Blackened Speed Metal



[ Hidden Text ]

Posted by: D.D.A.M.M. Sep 5 2012, 17:06:56

Чотко! 25.gif

Posted by: Daale Sep 6 2012, 14:53:15

По превьюхе могу отметить, что ребята очень любят олдскульный панк-рок! Счас послушаем-с и весь релиз smile1.gif

Powered by Invision Power Board
© Invision Power Services