Printable Version of Topic

Click here to view this topic in its original format

Metal Area - Extreme Music Portal _ Archive _ Beastplague - Manifestation [ep] (2012)

Posted by: aesteticvice Sep 6 2012, 07:33:05

http://metalarea.org/images/audiocovers/2012_Sep/acov_tid181236.jpg

*Artist: Beastplague
*Album: Manifestation [ep]
*Year: 2012
*Genre: Death Metal/Grindcore
*Country: United States
*Format: mp3@CBR320kbps
*Size: 16MB

Tracklist:
1.Lapse of Sanity 00:35
2.Crown of Scorn 01:12
3.Born of Sin 01:25
4.Drained of Life 00:45
5.Labyrinth of Torture 00:52
6.World of Filth 00:55
7.Feast of Locusts 01:00
******************************
Total playing time: 6:44

Extended info
3-Piece Grind/Death Metal band from Broward County, Florida.



Input File: 03. Born of Sin.mp3
Channels : 2
Sample Rate : 48000
Precision : 16-bit
Duration : 00:01:25.80 = 4118544 samples ~ 6435.22 CDDA sectors
File Size : 3.43M
Bit Rate : 320k
Sample Encoding: MPEG audio (layer I, II or III)
Comments :
Title=Born of Sin
Artist=Beastplague
Album=Manifestation
Tracknumber=03
Year=2012
Genre=Death Metal/Grind


[ Hidden Text ]

Posted by: pinner Sep 6 2012, 16:00:25

http://beastplague.bandcamp.com/album/manifestation

http://www.facebook.com/beastplague

Powered by Invision Power Board
© Invision Power Services