Printable Version of Topic

Click here to view this topic in its original format

Metal Area - Extreme Music Portal _ Archive _ Gorthaur's Wrath - War For Heaven (2013)

Posted by: aesteticvice Sep 6 2013, 15:32:35

http://metalarea.org/images/audiocovers/2013_Sep/acov_tid207873.jpg

*Artist: http://metalarea.org/forum/index.php?showtopic=194836
*Album: War For Heaven
*Year: 2013
*Genre: Melodic Black/Death Metal
*Country: Croatia
*Format: mp3@CBR320kbps
*Size: 128MB

Tracklist:
01. The Great Creation
02. Übermensch
03. The Lucifer Rebellion
04. Birth Of Sin
05. Inverted Spirits
06. Coming Down to Earth
07. 1000 Years
08. The Son Of Belial
09. Dawn Of A New Race
10. Supreme Illusion
11. Faithfall
******************************
Total playing time: 54:49

https://www.facebook.com/gorthaurswrath
http://www.youtube.com/watch?v=WH-_qTN5I-U

Extended info
Morbid - Vocals & Lyrics
Ross Feratu - Lead, Rhythm & Acoustic Guitars
Count van Conrad - Rhythm Guitars
Māra - Bass & Keyboards
Kraven - Drums
Guest studio:
Christian Bass (HEAVEN SHALL BURN, DER WEG EINER FREIHEIT, NIGHT IN GALES and WHITE EYES) - Drums
Jonas Baumgartl (ex-Obscura) - Drums



Technical info

Input File: 03. The Lucifer Rebellion.mp3
Channels : 2
Sample Rate : 44100
Precision : 16-bit
Duration : 00:05:52.45 = 15543045 samples = 26433.8 CDDA sectors
File Size : 14.1M
Bit Rate : 321k
Sample Encoding: MPEG audio (layer I, II or III)
Comments :
Title=The Lucifer Rebellion
Artist=Gorthaur's Wrath
Album=War For Heaven
Tracknumber=3/11
Year=2013


[ Hidden Text ]
[ Hidden Text ]

Posted by: deathzetk Sep 6 2013, 17:58:03

весьма впечатлило

Posted by: satanath Sep 7 2013, 16:12:04

Added links by drbutcher

Posted by: neoatheist Sep 11 2013, 08:28:26

Превосходно! Радует, что достойные преемники великих Dissection не перевелись!

Posted by: MeatWolf Sep 11 2013, 08:48:35

Мелодэт с хэви. Или хэви с мелодэтом? Послушать было интересно, но в рамках каждого трека слишком много повторяющихся фрагментов.

Posted by: aesteticvice Sep 11 2013, 09:00:36

ЦИТАТА(MeatWolf @ Sep 11 2013, 07:48:35) *
Мелодэт с хэви. Или хэви с мелодэтом?

1488.gif "Ровестник" в детстве читал?
http://s4.uploads.ru/K31bh.jpg

Posted by: V1nterch Sep 11 2013, 09:02:25

ЦИТАТА(neoatheist @ Sep 11 2013, 11:28:26) *
преемники Dissection

Не услышал ничего общего.
Скорее правда
ЦИТАТА(MeatWolf @ Sep 11 2013, 11:48:35) *
Мелодэт с хэви.


Posted by: voldemar13 Sep 11 2013, 09:13:13

ЦИТАТА(aesteticvice @ Sep 11 2013, 12:00:36) *
1488.gif "Ровестник" в детстве читал?
http://s4.uploads.ru/K31bh.jpg

Крутоsmile1.gif Блэк-металл - "супертяжелый блюз") Буду теперь только так называть)
"А что ты слушаешь?" - "Супертяжелый блюз, повествующий о противлении злу насилием и еще большим злом" - "Ооо, да ты эстет!"

Posted by: DenKov Sep 15 2013, 07:35:10

Скука ужасная, после трех треков стало крутить желудок.

Posted by: neoatheist Sep 15 2013, 09:10:56

ЦИТАТА(MeatWolf @ Sep 11 2013, 11:48:35) *
Мелодэт с хэви. Или хэви с мелодэтом?


Кста да. При внимательном прослушивании блэка почти на выявил... smile2.gif

Posted by: namhoangk4d Sep 15 2013, 10:37:40

ЦИТАТА(aesteticvice @ Sep 6 2013, 15:32:35) *
*Album: War For Heaven

thanhk for share album !

Posted by: Orphan Dec 27 2014, 14:16:47

Please can this be re-uploaded?

Posted by: morbidangelo Mar 22 2020, 07:00:39

re-up thanks

Posted by: orloff2000 Apr 9 2021, 05:45:35

Thank you very much, but unfortunately the link is no longer available 6.gif
Can anyone help?

Posted by: Borderline1991 Apr 13 2021, 17:21:55

[ Hidden Text ]

Powered by Invision Power Board
© Invision Power Services