Printable Version of Topic

Click here to view this topic in its original format

Metal Area - Extreme Music Portal _ Archive _ Gonguri - 2014 EP [ep] (2014)

Posted by: matteo Jul 13 2014, 13:16:37

https://metalarea.org/images/audiocovers/2014_Jul/acov_tid227266.jpg

*Artist: Gonguri
*Album: 2014 EP [ep]
*Year: 2014
*Genre: Sludge/Death Metal
*Country: South Korea
*Format: mp3@CBR320kbps
*Size: 53MB

Tracklist:
1. Dead Gook Storage 03:53
2. Yeonbyeon Kangpae 03:48
3. Unwanted Man 05:41
4. World of Shit 09:22
******************************
Total playing time: 22:44

http://gonguri.bandcamp.com/album/2014-ep
https://www.facebook.com/doomgonguri

Technical info

Input File: spectrum.png
Channels : 2
Sample Rate : 8000
Precision : 16-bit
Duration : 00:00:01.23 = 9848 samples ~ 92.325 CDDA sectors
File Size : 720k
Bit Rate : 4.68M
Sample Encoding: MPEG audio (layer I, II or III)



[ Hidden Text ]

Posted by: KKK1488 Jul 13 2014, 16:36:40

узкоглазые ублюдки в своем репертуаре.

Posted by: Jahmephisto Jul 13 2014, 17:28:52

ЦИТАТА(KKK1488 @ Jul 13 2014, 17:36:40) *
узкоглазые ублюдки в своем репертуаре.

Они в традициях. У них принято кушать собак. Но прежде они собаку привязывают к столбу и каждый проходящий должен ударить собаку ногой и чем сильнее тем считается лучше, мол мясо с гемотомами явно вкуснее простой неотбивной собачатины. Так что они в самом крутом национальном свете на обложке испражнились.
А во Вьетнаме и Лаосе также едят кошек.

Posted by: GoatFucker Jul 13 2014, 20:09:52

да мир всегда удивляет, скорее бы перезагрузка Земли произошла

Powered by Invision Power Board
© Invision Power Services