Printable Version of Topic

Click here to view this topic in its original format

Metal Area - Extreme Music Portal _ Archive _ Disloyal - March Or Die (2000)

Posted by: necroscum Dec 29 2014, 13:05:41

https://metalarea.org/images/audiocovers/2014_Dec/acov_tid236381.jpg

*Artist: Disloyal
*Album: March Or Die
*Year: 2000
*Genre: Thrash/Death/Black Metal
*Country: Slovakia
*Format: mp3@CBR320kbps
*Size: 89MB

Tracklist:
01. Beginning Of The End 05:01
02. Blind Horror 05:12
03. Fatal Attraction 04:07
04. Old Testament 03:46
05. White Evil 04:27
06. The Way Of The Desperate 05:52
07. Reason To Kill 02:55
08. Witching Flint 03:37
09. DCLXVI 04:40
******************************
Total playing time: 39:37

https://www.youtube.com/watch?v=tmx-iJCncvE

Technical info

Input File: 02. Blind Horror.mp3
Channels : 2
Sample Rate : 44100
Precision : 16-bit
Duration : 00:05:12.33 = 13773577 samples = 23424.5 CDDA sectors
File Size : 12.5M
Bit Rate : 320k
Sample Encoding: MPEG audio (layer I, II or III)
Comments :
Title=Blind Horror
Artist=Disloyal
Album=March or Die
Tracknumber=02
Year=2000



[ Hidden Text ]

Posted by: kastrup Jun 12 2022, 16:27:27

Re-up please pray.gif pray.gif

Posted by: kimkayoung Jun 15 2022, 19:56:19

Sorry! Can't find an archive, but each track previewable or downloadable at 360 kbps for free if you want to preview or miss some tracks:

[ Hidden Text ]

[The site has been a bit unstable these days... and I'm not affiliated with the site!]

Also, anyone with their 2004 "Resting Evil"?

Many thanks in advance!

Posted by: kastrup Jun 15 2022, 20:31:24

Thanks, buddy ! 9.gif 9.gif

QUOTE(kimkayoung @ Jun 15 2022, 18:56:19) *
Sorry! Can't find an archive, but each track previewable or downloadable at 360 kbps for free if you want to preview or miss some tracks:



[The site has been a bit unstable these days... and I'm not affiliated with the site!]

Also, anyone with their 2004 "Resting Evil"?

Many thanks in advance!


Powered by Invision Power Board
© Invision Power Services