Printable Version of Topic

Click here to view this topic in its original format

Metal Area - Extreme Music Portal _ Archive _ Solinaris - Deranged [ep] (2015)

Posted by: aesteticvice Jul 17 2015, 09:01:05

http://metalarea.org/images/audiocovers/2015_Jul/acov_tid249050.jpg

*Artist: Solinaris
*Album: Deranged [ep]
*Year: 2015
*Genre: Avant-Garde/Progressive Technical Death Metal
*Country: Canada
*Format: mp3@CBR320kbps
*Size: 43MB

Tracklist:
1. Deranged 05:20
2. Phobopath 05:35
3. Field Of Trees 06:28
******************************
Total playing time: 17:23

http://solinaris.bandcamp.com/album/deranged

Extended info
Eric Labrie: Vocals - Keys
Bernard Giroux - All acoustic guitars
Jean-Daniel Villeneuve - All electric, solos and electric clean guitar parts
Jonathan Piché: Bass
Lucas Biron - Drum

Guest musician: Alexandra Lacasse - Sax


Technical info

Input File: Solinaris - Deranged - 01 Deranged.mp3
Channels : 2
Sample Rate : 44100
Precision : 16-bit
Duration : 00:05:20.84 = 14149000 samples = 24062.9 CDDA sectors
File Size : 13.1M
Bit Rate : 326k
Sample Encoding: MPEG audio (layer I, II or III)
Comments :
Title=Deranged
Artist=Solinaris
Album=Deranged
Tracknumber=1
Year=2015



[ Hidden Text ]

Posted by: edzkar Jul 17 2015, 16:50:19

http://solinaris.bandcamp.com/releases

Posted by: xAtiLLAx Jul 17 2015, 20:47:51

хорошо

Posted by: aesteticvice Jul 19 2015, 07:43:04

я бы сказал нехилая такая новая звезда на Канадском прог техникал дэт Олимпе, вернее очень качественная свежая кровь

Posted by: Язва Sep 4 2015, 07:52:15

Последний трэк Field Of Trees с чистым (женским?) вокалом и жирным басом чудо как хорош (9/10), а первые два тянут конечно на определение "очень качественная свежая кровь", но не более того (7/10).

Posted by: Язва Jun 22 2016, 13:03:25

Все три вещи вошли в одноименный лонгплей http://metalarea.org/forum/index.php?showtopic=265571

Powered by Invision Power Board
© Invision Power Services