Printable Version of Topic

Click here to view this topic in its original format

Metal Area - Extreme Music Portal _ Archive _ Harvest The Infection - Reassortment [ep] (2015)

Posted by: aesteticvice Jul 29 2015, 17:01:57

https://metalarea.org/images/audiocovers/2015_Jul/acov_tid249682.jpg

*Artist: Harvest The Infection
*Album: Reassortment [ep]
*Year: 2015
*Genre: Progressive/Technical Death Metal
*Country: Canada
*Format: mp3@CBR320kbps
*Size: 38MB

Tracklist:
1. Hard to Kill 04:09
2. Obsidian 05:17
3. Reassortment 00:56
4. Remnants 04:41
******************************
Total playing time: 15:03

https://www.facebook.com/HTIorDie
http://harvesttheinfection.bandcamp.com/album/reassortment

Extended info
Круты пасаны, жесткие и интересные.
Influence: Gorod, Necrophagist, The Faceless, Revocation, Decapitated...

Chris Thorpe - Vocals
Jared Smith - Guitars (Civil Ruin)
Kyle Wagner - Guitars (Civil Ruin, ex-Gordred)
Paul Drummond - Drums (Civil Ruin, ex-Gordred)
James Butler-Grey - Bass


Technical info

Input File: Harvest the Infection - Reassortment - 01 Hard to Kill.mp3
Channels : 2
Sample Rate : 44100
Precision : 16-bit
Duration : 00:04:09.70 = 11011946 samples = 18727.8 CDDA sectors
File Size : 10.2M
Bit Rate : 328k
Sample Encoding: MPEG audio (layer I, II or III)
Comments :
Title=Hard to Kill
Artist=Harvest the Infection
Album=Reassortment
Tracknumber=1
Year=2015



[ Hidden Text ]

Posted by: aserius Jul 30 2015, 00:31:25

Напорище . Механика низших .Необычная подача вокала для техникала .. Свежая струя.

Posted by: realexxx75 Jul 30 2015, 19:33:17

Пожалуй заберу, вот бы ещё запись покачественнее ...

Posted by: Язва Aug 13 2015, 14:03:52

Скоростной шквал с первой ноты. Продолжатели дела Brain Drill? Нет, уже в первом же трэке канадцы не держат этот убийственный темп и быстро сдуваются.
И по итогам всех 15 минут не более 7-8/10.

Posted by: ddx1 Aug 13 2015, 14:15:58

ЦИТАТА(Язва @ 13th August 2015 - 16:03:52) *
Продолжатели дела Brain Drill?
Ага, кому интересно с этим пластмассовым днищем тягаться. От превью заторчал и уполз в уголок.

Posted by: Язва Aug 13 2015, 15:20:46

Начало Hard to Kill очень многообещающее, но потом 21.gif

Posted by: ddx1 Aug 13 2015, 15:31:44

ЦИТАТА(Язва @ 13th August 2015 - 17:20:46) *
но потом 21.gif
Т.е. «некрофагистовская» соляра тебе не вкатила?

Posted by: aesteticvice Aug 13 2015, 16:35:42

ЦИТАТА(Язва @ Aug 13 2015, 14:20:46) *
Начало Hard to Kill очень многообещающее, но потом 21.gif

А по мне так потом как раз самое вкусное и пошло smile1.gif

Posted by: Язва Aug 14 2015, 13:23:29

ЦИТАТА(ddx1 @ Aug 13 2015, 17:31:44) *
Т.е. «некрофагистовская» соляра тебе не вкатила?

во втором трэке слабенькая

Powered by Invision Power Board
© Invision Power Services