Printable Version of Topic

Click here to view this topic in its original format

Metal Area - Extreme Music Portal _ Archive _ Celebration - Performes My Soul [demo] (1991)

Posted by: Proteus_666 Oct 20 2015, 10:54:04

http://metalarea.org/images/audiocovers/2015_Oct/acov_tid254967.jpg

*Artist: http://metalarea.org/forum/index.php?showtopic=303586
*Album: Performes My Soul [demo]
*Year: 1991
*Genre: Death Metal
*Country: Poland
*Format: mp3@CBR320kbps
*Size: 38MB

Tracklist:
1. Keltic Tomb 01:02
2. Black Thing 03:42
3. Venom Voices 03:21
4. Burning Moon 05:12
5. Killer Instinct 03:01
6. Performers My Soul 00:50
******************************
Total playing time: 17:08

Extended info
Cd version.


Technical info

Input File: 02-Black Things.mp3
Channels : 2
Sample Rate : 44100
Precision : 16-bit
Duration : 00:03:42.59 = 9816087 samples = 16694 CDDA sectors
File Size : 8.90M
Bit Rate : 320k
Sample Encoding: MPEG audio (layer I, II or III)
Comments :
Title=Black Things
Artist=Celebration
Album=Performes My Soul (Demo)
Tracknumber=02
Year=1991
Genre=Death Metal



[ Hidden Text ]

Posted by: ack Oct 6 2023, 08:03:24

reupload?

Posted by: Proteus_666 Oct 17 2023, 02:17:11

new link:
[ Hidden Text ]

Powered by Invision Power Board
© Invision Power Services