Printable Version of Topic

Click here to view this topic in its original format

Metal Area - Extreme Music Portal _ Archive _ Iron Kingdom - Ride For Glory (2015)

Posted by: necroscum Oct 25 2015, 01:52:40

http://metalarea.org/images/audiocovers/2015_Oct/acov_tid255225.jpg

*Artist: Iron Kingdom
*Album: Ride For Glory
*Year: 2015
*Genre: Heavy Metal
*Country: Canada
*Format: mp3@CBR320kbps
*Size: 102MB

Tracklist:
01. On The Eve Of Battle
02. Leif Erikson
03. Ride For Glory
04. Lady Triệu And The Kingdom Of Wu
05. The Samurai
06. Night Attack
07. A Call To Arms
08. The Veiled Knight
******************************
Total playing time: 40:17

https://www.facebook.com/ironkingdom

Technical info

Input File: 06. Night Attack.mp3
Channels : 2
Sample Rate : 44100
Precision : 16-bit
Duration : 00:06:50.50 = 18103182 samples = 30787.7 CDDA sectors
File Size : 17.2M
Bit Rate : 335k
Sample Encoding: MPEG audio (layer I, II or III)
Comments :
Title=Night Attack
Artist=Iron Kingdom
Album=Ride For Glory
Tracknumber=06/08
Year=2015



[ Hidden Text ]

Posted by: Lion Oct 25 2015, 09:29:30

[ Hidden Text ]

Posted by: zauber1 Oct 26 2015, 14:55:35

Ужас.


Powered by Invision Power Board
© Invision Power Services