Printable Version of Topic

Click here to view this topic in its original format

Metal Area - Extreme Music Portal _ Archive _ Sour Cream - Step Stoned​/​Drink Alone [single] (2016)

Posted by: TheTrooper916 Mar 13 2016, 17:21:29

http://metalarea.org/images/audiocovers/2016_Mar/acov_tid263924.jpg

*Artist: Sour Cream
*Album: Step Stoned​/​Drink Alone [single]
*Year: 2016
*Genre: Stoner/Doom Metal
*Country: Australia
*Format: mp3@CBR320kbps
*Size: 29MB

Tracklist:
1. Step Stoned 05:54
2. Drink Alone 06:25
******************************
Total playing time: 12:19

http://sourcream1.bandcamp.com/

Extended info
Sour Cream:
Sam White: Bass.
Ben Howell: Bass.
Julien Crendal: Drums.
Drew Montgomery: Guitars.
Morgan Anthony: Guitars, Vocals.


Technical info

Input File: Step Stoned-Sample.mp3
Channels : 2
Sample Rate : 44100
Precision : 16-bit
Duration : 00:01:00.03 = 2647279 samples = 4502.18 CDDA sectors
File Size : 2.40M
Bit Rate : 320k
Sample Encoding: MPEG audio (layer I, II or III)
Comments :
Title=Step Stoned
Artist=Sour Cream
Album=Step Stoned/Drink Alone
Tracknumber=1
Year=2016
Genre=Stoner/Doom Metal



[ Hidden Text ]

Powered by Invision Power Board
© Invision Power Services