Printable Version of Topic

Click here to view this topic in its original format

Metal Area - Extreme Music Portal _ Archive _ IZŌ - IZŌ (2016)

Posted by: TheTrooper916 Apr 17 2016, 23:07:18

http://metalarea.org/images/audiocovers/2016_Apr/acov_tid265969.jpg

*Artist: IZŌ
*Album: IZŌ
*Year: 2016
*Genre: Stoner/Doom/Post-Metal
*Country: Italy
*Format: mp3@CBR320kbps
*Size: 85MB

Tracklist:
1. Izo (Intro) 01:34
2. We Are What We Are 07:31
3. Hikikomori 08:40
4. Kikusai 08:32
5. EuTONEsia 07:05
6. MudMut (Outro) 03:58
******************************
Total playing time: 37:20

https://acidcosmonautrecords.bandcamp.com/album/izo

Extended info
IZŌ:
Paolo Barone: Guitar.
Maurizio Calò: Guitar.
Francesco De Pascali: Bass.
Luca Greco: Drums.


Technical info

Input File: We Are What We Are-Sample.mp3
Channels : 2
Sample Rate : 44100
Precision : 16-bit
Duration : 00:01:00.03 = 2647411 samples = 4502.4 CDDA sectors
File Size : 2.59M
Bit Rate : 346k
Sample Encoding: MPEG audio (layer I, II or III)
Comments :
Title=We Are What We Are
Artist=IZЕЊ
Album=IZЕЊ
Tracknumber=2
Year=2016
Genre=Metal



[ Hidden Text ]

Posted by: sperminator Jan 9 2019, 22:34:31

from web
[ Hidden Text ]

Powered by Invision Power Board
© Invision Power Services