Printable Version of Topic

Click here to view this topic in its original format

Metal Area - Extreme Music Portal _ Archive _ Intet - Demo [demo] (2016)

Posted by: TheTrooper916 Apr 26 2016, 20:09:13

http://metalarea.org/images/audiocovers/2016_Apr/acov_tid266451.jpg

*Artist: Intet
*Album: Demo [demo]
*Year: 2016
*Genre: Sludge/Doom Metal
*Country: Sweden
*Format: mp3@CBR320kbps
*Size: 72MB

Tracklist:
1. Intret 04:54
2. Mänsklig Utgång 16:06
3. Extrovert Hat Från Nedan 10:15
******************************
Total playing time: 31:15

http://intetband.bandcamp.com/

Technical info

Input File: Mänsklig Utgång-Sample.mp3
Channels : 2
Sample Rate : 44100
Precision : 16-bit
Duration : 00:00:30.04 = 1324764 samples = 2253 CDDA sectors
File Size : 1.20M
Bit Rate : 320k
Sample Encoding: MPEG audio (layer I, II or III)
Comments :
Title=Mänsklig Utgång
Artist=Intet
Album=Demo
Tracknumber=2
Year=2016
Genre=Sludge/Doom Metal



[ Hidden Text ]

Powered by Invision Power Board
© Invision Power Services