Printable Version of Topic

Click here to view this topic in its original format

Metal Area - Extreme Music Portal _ Archive _ Gloomy Grim - The Age Of Aquarius (2016)

Posted by: Grimmsberg Jun 23 2016, 18:54:06

http://metalarea.org/images/audiocovers/2016_Jun/acov_tid269691.jpg

*Artist: http://metalarea.org/forum/index.php?showtopic=9120
*Album: The Age Of Aquarius
*Year: 2016
*Genre: Symphonic Black Metal
*Country: Finland
*Format: mp3@CBR320kbps
*Size: 86MB

Tracklist:
1. The Rise of the Great Beast 04:54
2. Germination 02:53
3. A Lady in White 03:23
4. Beyond the Hate 04:46
5. One Night I Heard a Scream 05:33
6. The Shameful Kiss 03:05
7. The Mist 05:01
8. Time 04:21
9. Light of Lucifer Shine on Me 06:17
10. Trapped in Eternal Darkness 04:05
******************************
Total playing time: 44:18

https://satanath.bandcamp.com/album/sat151-gloomy-grim-the-age-of-aquarius-2016

Extended info
Эксклюзивно для портала

CD-Rip



Technical info

Input File: 02 Germination.mp3
Channels : 2
Sample Rate : 44100
Precision : 16-bit
Duration : 00:02:53.36 = 7645176 samples = 13002 CDDA sectors
File Size : 6.93M
Bit Rate : 320k
Sample Encoding: MPEG audio (layer I, II or III)
Comments :
Title=Germination
Artist=Gloomy Grim
Album=The Age of Aquarius
Tracknumber=2
Genre=Unknown genre



[ Hidden Text ]

Posted by: Grimmsberg Jun 23 2016, 21:12:04

Альбом мне вполне понравился. Творчество группы нравится весьма выборочно,ранние альбомы более интересны чем поздние. А учитывая какой перерыв был между этим и предыдущим полноформатом можно считать, что возвращение удалось. Нужное настроение и атмосфера присутствуют.

[ Hidden Text ]

Posted by: GoatFucker Jun 24 2016, 14:29:11

Это поездатая новость!! люблю их гнетущую, механическую злобу, ядовитую. Читающие - услышьте!

Posted by: vosmidesijatye Jun 26 2016, 20:07:15

Нравится у них всё, окромя парочки альбомов. Здесь они не потеряли себя и идут верным курсом - мощный и ощеренный блэк метал. Симфо? Только если для подчёркивания зловещести намерений и преданности всему тёмному и потустороннему. Следует заметить, что их бм подлинно самобытен - подобного кроме них не творит никто - они как бы смешивают романтизм и тёмную готику с цепляющим и мрачным чернометом, где всевозможные симфо-дела лишь орнамент, не довлеющий над основой и базисом. Отдельно отмечу мощный и раскатистый вокал с обилием всевозможных модуляций. По мелодиям всё очень сильно, ребзя не сдали ни на шаг, как будто и не было тех восьми лет, что пробежали с момента выхода предыдущего полноформата.

Смело вгрызайтесь. true_black.gif

Posted by: DenisKov Jun 27 2016, 09:18:56

Прогнал 3 трека, чет не очень.

Posted by: Metalass Jul 10 2017, 05:12:03

Так я их и не понял, увы.

Powered by Invision Power Board
© Invision Power Services