Printable Version of Topic

Click here to view this topic in its original format

Metal Area - Extreme Music Portal _ Archive _ Inanimate Existence - Calling From A Dream (2016)

Posted by: necroscum Sep 16 2016, 02:04:29

http://metalarea.org/images/audiocovers/2016_Sep/acov_tid274365.jpg

*Artist: Inanimate Existence
*Album: Calling From A Dream
*Year: 2016
*Genre: Progressive/Technical Death Metal
*Country: United States
*Format: mp3@CBR320kbps
*Size: 102MB

Tracklist:
01. Calling from a Dream
02. The Arcane Crystal
03. Shore of Rising Shadows
04. Pulse of the Mountain's Heart
05. Upon Whirling Winds
06. Dreaming of new Beginnings
07. Beneath the Mist
08. Falling into Malice
09. Burial at Sea
******************************
Total playing time: 35:27

https://www.facebook.com/TheInanimateExistence/

Technical info

Input File: 02. The Arcane Crystal.mp3
Channels : 2
Sample Rate : 44100
Precision : 16-bit
Duration : 00:02:47.91 = 7404699 samples = 12593 CDDA sectors
File Size : 8.26M
Bit Rate : 394k
Sample Encoding: MPEG audio (layer I, II or III)
Comments :
Title=The Arcane Crystal
Artist=Inanimate Existence
Album=Calling From A Dream
Tracknumber=02/09
Year=2016



[ Hidden Text ]

Posted by: aesteticvice Sep 16 2016, 06:10:01

https://uniqueleaderrecords.bandcamp.com/album/calling-from-a-dream
В стиль можно смело добавить Modern, группа узнаваема по прежнему, только лишь смягчила саунд, стало больше девочки на вокале и главное все это дело теперь на грувово-джентововом подсосе 21.gif в принципе очень неплохо если не претят данные обстоятельства, обидно конечно учитывая прошлые работы, они могли смело обойтись без этого дж дж дж... или уже не могли?




Posted by: Dmitry1977 Sep 16 2016, 06:19:34

QUOTE(aesteticvice @ Sep 16 2016, 07:10:01) *
обидно конечно учитывая прошлые работы, они могли смело обойтись без этого дж дж дж... или уже не могли?


Мну бы сказал - обидно грустно до слез

Posted by: ddx1 Sep 16 2016, 08:42:38

Ой, взрослые дяди же smile3.gif

ДИКО ВТАЩИВАЮСЬ ТАЩЕМТА!!11 metaler.gif

Posted by: Hallelucination Sep 16 2016, 14:02:45

Спасибо. Буду пытаться врубиться в этот альбом.

Posted by: Dmitry1977 Sep 16 2016, 14:32:20

QUOTE(Hallelucination @ Sep 16 2016, 15:02:45) *
Спасибо. Буду пытаться врубиться в этот альбом.


Это необязательно, фигня альбом. Лучше в An Abstract Illusion врубайся!

Posted by: Evilded Sep 16 2016, 17:55:20

если сравнивать с предыдущими убойными работами, то да, этот ЛП не в коня корм. но если не знать вывески, то вполне себе средне годный дебют каких нибудь тинейджеров из оклахомы, с дж дж дж и бабим клинвойсом (который, кстати, вполне себе удобоварим). в любом случае, на расслушку однозначно, не зря ж с утра дважды без отврата влез в уши. пока 7/10.

Posted by: Bitchkiller Sep 17 2016, 10:34:46

Мда не ожидал я такого от них. Можно смело вычеркивать этих душных лохов, которые променяли какую-то самобытность на прирост в несколько сотен школьников. normal_Homerdisgust3.png

Если unique leader и дальше будет такую ccанину выпускать, то я знаю каким будет следующий альбом дидсов 15.gif

Posted by: Язва Sep 6 2017, 13:59:19

почитал местные отзывы и пропустил этот альбом

Posted by: Metalass Dec 23 2017, 12:18:06

Какое неприятие-то... уфф...

Ребята захотели как Fallujah порвать шаблон.
Отчасти получилось, звучит неплохо.
Передоз женского вокала и его качество добавляют мощную ложку дегтя в эти старания.
Слушается не очень цельно, но довольно легко.

Не думаю, что эксперимент полностью удался. Но все равно пришелся по вкусу.

Posted by: Язва Jan 10 2018, 15:09:03

Послушал их альбом 2017 года и решил всё-таки качнуть этот..
В общем и целом Evilded очень правильно его охарактеризовал:

ЦИТАТА(Evilded @ Sep 16 2016, 19:55:20) *
если сравнивать с предыдущими убойными работами, то да, этот ЛП не в коня корм. но если не знать вывески, то вполне себе средне годный дебют каких нибудь тинейджеров из оклахомы, с дж дж дж и бабим клинвойсом (который, кстати, вполне себе удобоварим). в любом случае, на расслушку однозначно, не зря ж с утра дважды без отврата влез в уши. пока 7/10.

7/10

Posted by: SyncestrA Sep 1 2019, 13:25:28

Единственный альбом группы, который понравился. В следующем проговые кусочки прям очень хороши, а всё остальное вообще не зацепило 21.gif

320 к (проверенные) / 86 Mb:
[ Hidden Text ]

Powered by Invision Power Board
© Invision Power Services