Printable Version of Topic

Click here to view this topic in its original format

Metal Area - Extreme Music Portal _ Archive _ Svrm - При смерти [demo] (2016)

Posted by: Velmi Sep 16 2016, 10:29:57

http://metalarea.org/images/audiocovers/2016_Sep/acov_tid274372.jpg

*Artist: Svrm
*Album: При смерти [demo]
*Year: 2016
*Genre: Black Metal
*Country: Ukraine
*Format: mp3@CBR320kbps
*Size: 15MB

Tracklist:
1. Экуменополис 03:15
2. Рабство 03:01
******************************
Total playing time: 6:16

https://svrm.bandcamp.com/album/-

Extended info
Highly recommended!


Technical info

Input File: 01. Экуменополис.mp3
Channels : 2
Sample Rate : 44100
Precision : 16-bit
Duration : 00:03:15.18 = 8607394 samples = 14638.4 CDDA sectors
File Size : 7.96M
Bit Rate : 326k
Sample Encoding: MPEG audio (layer I, II or III)
Comments :
Title=Экуменополис
Artist=svrm
Album=При смерти
Tracknumber=01/02
Year=2016
Genre=Black Metal



[ Hidden Text ]

Posted by: recber Sep 16 2016, 14:48:04

Кто такие почему не знаю crazy.gif

Posted by: General Jan 5 2018, 11:28:33

еле нашел [ Hidden Text ]

Powered by Invision Power Board
© Invision Power Services