Printable Version of Topic

Click here to view this topic in its original format

Metal Area - Extreme Music Portal _ Archive _ Junior Bruce - Endless Descent (2016)

Posted by: necroscum Oct 30 2016, 13:50:00

http://metalarea.org/images/audiocovers/2016_Oct/acov_tid277049.jpg

*Artist: Junior Bruce
*Album: Endless Descent
*Year: 2016
*Genre: Stoner Metal/Sludge
*Country: United States
*Format: mp3@CBR320kbps
*Size: 101MB

Tracklist:
01. Lapis Philosophorum
02. Lion's Teeth
03. Thirteen Zeros
04. Of the Deep
05. Of the Earth
06. The Worthless Ones
07. Interlude
08. Night Hag
09. Lesser Key
10. Endless Descent
******************************
Total playing time: 33:56

https://www.facebook.com/juniorbrucerocks

Technical info

Input File: 02. Lion's Teeth.mp3
Channels : 2
Sample Rate : 44100
Precision : 16-bit
Duration : 00:04:10.88 = 11063808 samples = 18816 CDDA sectors
File Size : 10.2M
Bit Rate : 324k
Sample Encoding: MPEG audio (layer I, II or III)
Comments :
Title=Lion's Teeth
Artist=Junior Bruce
Album=Endless Descent
Tracknumber=2/10
Year=2016



[ Hidden Text ]

Posted by: KVRT Oct 30 2016, 15:10:30

https://a389recordings.bandcamp.com/album/junior-bruce-endless-descent

Posted by: grobator Oct 30 2016, 17:28:43


Posted by: snot Oct 31 2016, 19:00:35

Грамотный релиз. genius.gif

Posted by: sperminator Nov 1 2016, 03:34:18

from the web, 320 kbps
[ Hidden Text ]

Powered by Invision Power Board
© Invision Power Services