Printable Version of Topic

Click here to view this topic in its original format

Metal Area - Extreme Music Portal _ Archive _ Norrsköld - Withering Virtue - The Second Chapter (2017)

Posted by: necroscum Feb 28 2017, 14:29:04

http://metalarea.org/images/audiocovers/2017_Feb/acov_tid284324.jpg

*Artist: Norrsköld
*Album: Withering Virtue - The Second Chapter
*Year: 2017
*Genre: Melodic Black/Folk Metal
*Country: Sweden
*Format: mp3@CBR320kbps
*Size: 94MB

Tracklist:
01. Everfrozen
02. Feed the Ground
03. A Fiddler's Trance
04. Awaken the Dead
05. Fallen One
06. Impurity
07. Stormgryning
08. Cursed and Vicious
09. Shadows
10. Rite of Aeons
11. Malice
12. Månsorg
******************************
Total playing time: 43:21

https://www.facebook.com/Norrskold

Technical info

Input File: 02-norrskoeld-feed_the_ground-c5823733.mp3
Channels : 2
Sample Rate : 44100
Precision : 16-bit
Duration : 00:04:28.57 = 11843805 samples = 20142.5 CDDA sectors
File Size : 11.0M
Bit Rate : 327k
Sample Encoding: MPEG audio (layer I, II or III)
Comments :
Title=Feed The Ground
Artist=Norrskoeld
Album=Withering Virtue-The Second Chapter
Tracknumber=2/12
Year=2017
Genre=9



[ Hidden Text ]

Posted by: sperminator Mar 1 2017, 00:59:39

scene rip, как пишут... вот ещё зеркало, из сети:
[ Hidden Text ]

Posted by: DenisKov Mar 1 2017, 14:34:06


Пока только треть прослушал, неплохо, на разик прогоню.

Posted by: Andrew Jun 21 2017, 17:47:55

https://soundcloud.com/norrskold/everfrozen

Posted by: Angeldemon617 Jul 21 2021, 21:53:52

mp3@CBR320kbps
http://mortuusinsomnis06.blogspot.com[ Hidden Text ]

Powered by Invision Power Board
© Invision Power Services