Printable Version of Topic

Click here to view this topic in its original format

Metal Area - Extreme Music Portal _ Archive _ Magnox - Liberando El Dolor [ep] (2017)

Posted by: Samaritianin May 19 2017, 22:43:25

http://metalarea.org/images/audiocovers/2017_May/acov_tid289039.jpg

*Artist: Magnox
*Album: Liberando El Dolor [ep]
*Year: 2017
*Genre: Thrash Metal
*Country: Argentina
*Format: mp3@CBR320kbps
*Size: 51MB

Tracklist:
1. El Necio
2. Coma Of Souls (Kreator cover)
3. Thanx For Nothing (Overkill cover)
4. Liberando El Dolor
5. Ace Of Spades (Motorhead cover)
******************************
Total playing time: 22:41

https://www.youtube.com/watch?v=RtCwgHeDqeg&feature=youtu.be
https://www.facebook.com/magnoxthrashmetal/?pnref=lhc

Extended info


Technical info

Input File: 02 - Coma Of Souls.mp3
Channels : 2
Sample Rate : 44100
Precision : 16-bit
Duration : 00:04:24.12 = 11647736 samples = 19809.1 CDDA sectors
File Size : 10.6M
Bit Rate : 320k
Sample Encoding: MPEG audio (layer I, II or III)
Comments :
Title=Coma Of Souls
Artist=Magnox
Album=Liberando El Dolor
Tracknumber=2
Year=2017
Genre=Thrash Metal



[ Hidden Text ]

Posted by: diflock May 20 2017, 09:07:53

Очередная порция бодрых каверов metaler.gif

Posted by: Vasiliy09 Apr 3 2024, 01:12:16

https://magnoxthrashmetal.bandcamp.com/album/liberando-el-dolor-e-p

Powered by Invision Power Board
© Invision Power Services