Printable Version of Topic

Click here to view this topic in its original format

Metal Area - Extreme Music Portal _ Archive _ ExCxSx & Diskonekcija & Putrido & Fekal Propulsion & Porno Fart & Goregrind Party - 6 Fluidos Fermentados De Pestilencia Auditiva [split] (2017)

Posted by: necroscum Nov 15 2017, 16:12:03

https://metalarea.org/images/audiocovers/2017_Nov/acov_tid297877.jpg

*Artist: ExCxSx & Diskonekcija & Putrido & Fekal Propulsion & Porno Fart & Goregrind Party
*Album: 6 Fluidos Fermentados De Pestilencia Auditiva [split]
*Year: 2017
*Genre: Goregrind/Pornogrind/Noisegrind
*Country: Many
*Format: mp3@CBR320kbps
*Size: 100MB

Tracklist:
ExCxSx:
01. Masturbating Asian Shemale Kneads Small Breats 01:07
02. Shemale Cum-Bath 01:11
03. Shemale Paradise 01:31
04. Untitled Track 4 01:03
Diskonekcija:
05. Kako 01:35
06. Pileci Mozgovi 01:53
07. Svi 01:59
08. Fotelje 01:54
Putrido:
09. Buffet Anal 02:37
10. Fofo Bukkake 01:03
11. Patologo Obsceno 02:13
12. Sale Mierda 01:43
Fekal Propulsion:
13. Anal Cavity Introduction 01:21
14. Carnicero Necrofilico 02:13
15. Cleptomania Coprofagica 01:42
16. Yo Soy Tu Vater 01:25
Porno Fart:
17. The Pig-Man's Borning 01:42
18. Fuck This, Fuck That 00:55
19. I Pig, I Hate 01:55
20. Fuck Your Sex Rules! 00:46
Goregrind Party:
21. Nito Neto Cobra (RDES) Y Varios Amiguitos Fugaron Por La Puertra Tracera Del Nuclear Bar Despues De Darles Una Puta Paliza 02:29
22. Diarreica Explosion 02:04
23. Indigestible Alcholizacion 02:15
24. Repugante Bastardo, Homofobico, Racista, Misogino, Machista, Un Excremento Vale 100 Veces Mas Que Tu Puta Existencia 02:28
******************************
Total playing time: 41:04

https://www.facebook.com/ExCxSxGorenoise/
https://www.facebook.com/Diskonekcija/
https://www.facebook.com/Putrido.Grindcore/
https://www.facebook.com/Fekal-Propulsion-259333917876016/
https://www.facebook.com/Porno-Fart-488634704486525/
https://www.facebook.com/Goregrindparty/
https://fekalpropulsionpornogrind.bandcamp.com/album/6-fluidos-fermentados-de-pestilencia-auditiva

Technical info

Input File: 02. Shemale Cum-Bath.mp3
Channels : 2
Sample Rate : 44100
Precision : 16-bit
Duration : 00:01:11.43 = 3149843 samples = 5356.88 CDDA sectors
File Size : 3.10M
Bit Rate : 347k
Sample Encoding: MPEG audio (layer I, II or III)
Comments :
Title=ExCxSx - Shemale Cum-Bath
Artist=V.A
Album=6 Fluidos Fermentados de Pestilencia Auditiva
Tracknumber=2
Year=2017



[ Hidden Text ]

Posted by: olegator Jul 30 2018, 10:48:20

перезалей плиз)

Posted by: Lanceatum Jan 25 2020, 14:55:08

Reupload please

Posted by: Lanceatum Apr 2 2020, 21:50:29

Перезалейте, пожалуйста

Posted by: Lanceatum Jun 20 2020, 22:09:03

Reupload please

Posted by: Lanceatum Aug 28 2020, 10:27:42

Перезалейте, пожалуйста

Posted by: Anhra Mainyu Aug 28 2020, 12:37:18

QUOTE(Lanceatum @ Aug 28 2020, 12:27:42) *
Перезалейте, пожалуйста


[ Hidden Text ]

Powered by Invision Power Board
© Invision Power Services