Printable Version of Topic

Click here to view this topic in its original format

Metal Area - Extreme Music Portal _ Archive _ Свентояр - Ethnix (2017)

Posted by: necroscum Dec 23 2017, 12:24:43

https://metalarea.org/images/audiocovers/2017_Dec/acov_tid299594.jpg

*Artist: Свентояр
*Album: Ethnix
*Year: 2017
*Genre: Pagan/Folk Metal
*Country: Ukraine
*Format: mp3@CBR320kbps
*Size: 116MB

Tracklist:
01. Интро
02. Черный Ворон
03. Коза
04. Сама Иду По Каменю
05. Жинка
06. Во Лузе
07. Салавейка
08. Мать По Сыну Не Тужа
09. Сизых Моих Два Голуба
10. Утица
11. Выйду За Ворота
12. Одверни, Боже
******************************
Total playing time: 50:17

https://myspace.com/sventoyar
https://www.facebook.com/sventoyar
https://vk.com/sventoyar
https://sventoyar.bandcamp.com/album/e-t-h-n-i-x
https://www.youtube.com/watch?v=g1_XquMIFA8

Technical info

Input File: 02. Черный ворон.mp3
Channels : 2
Sample Rate : 44100
Precision : 16-bit
Duration : 00:04:54.61 = 12992301 samples = 22095.8 CDDA sectors
File Size : 11.8M
Bit Rate : 321k
Sample Encoding: MPEG audio (layer I, II or III)
Comments :
Title=Черный Ворон
Artist=Свентояр
Album=Ethnix
Tracknumber=02
Year=2017
Genre=Folk Metal



[ Hidden Text ]

Posted by: M8R8K Dec 23 2017, 13:47:22

даже качать страшно... на каком языке поют? а треклист на каком?

Posted by: Old Vyaine Dec 23 2017, 14:17:32

Этник джент 1488.gif но весьма добротно.

Posted by: Xutun Dec 23 2017, 16:50:58

Интересный альбом получился. Спасибо! Отдалённо напоминает российско-венгерскую(?) команду Баба Яга, но те исполняли сплав рока и этники.

Posted by: Black Cat Dec 23 2017, 17:31:02

ЦИТАТА(M8R8K @ Dec 23 2017, 14:47:22) *
даже качать страшно... на каком языке поют? а треклист на каком?

Трибьйит Микиле Йиновичу пи хиду.

Posted by: aesteticvice Dec 23 2017, 17:53:36

ну да, джент в стиле забыли, он тут в основе, 1488.gif чем тока фолк не портят люди

Posted by: Ogidni Dec 23 2017, 18:17:14

Эмбиджент с фолковой основой. Хорошо очень получилось

Posted by: Sinuhe Dec 24 2017, 08:36:01

necroscum,
стиль поменяй на джент/этник. так точнее будет.

Posted by: isvili Dec 24 2017, 09:36:59

ЦИТАТА(Black Cat @ Dec 23 2017, 18:31:02) *
Трибьйит Микиле Йиновичу пи хиду.

Нэтрижь Кровосися 1488.gif

Posted by: Ogidni Jan 20 2018, 19:57:02

В группе https://vk.com/wall-5724897_2143 инструментальная версия есть

Posted by: MeatWolf Jan 21 2018, 17:40:06

Интересный альбом, правда, очень тяжело воспринимается из-за нетривиальной структуры композиций и неспешного джентования. Ну и песен с яркими мелодиями очень немного. Надо в эту музыку как-то иначе вникать.

Posted by: Mplast Jan 21 2018, 18:26:30

Goatsbusters (Коза) повеселила известной мелодией)
В остальном соглашусь с MeatWolf, для моих ушей тоже тяжеловато... Например, когда заиграла "Жинка", подумал, что у меня параллельно другая песня включилась где-то в тубе, начал по вкладкам искать))

Powered by Invision Power Board
© Invision Power Services