Printable Version of Topic

Click here to view this topic in its original format

Metal Area - Extreme Music Portal _ Archive _ Taken By The Tide - Revenge (2018)

Posted by: Necrokilldozer Jan 26 2018, 18:31:00

http://metalarea.org/images/audiocovers/2018_Jan/acov_tid301050.jpg

*Artist: Taken By The Tide
*Album: Revenge
*Year: 2018
*Genre: Technical Metalcore
*Country: United Kingdom
*Format: mp3@CBR320kbps
*Size: 49MB

Tracklist:
1. The Organs Are Mine
2. Grave Lessons
3. Moloch
4. Revenge Overture
5. Anfang Extinction
6. Now I Am Become Death
******************************
Total playing time: 22:12

https://www.metal-archives.com/bands/Taken_by_the_Tide/3540335379
http://tbtt.bandcamp.com/
http://www.youtube.com/takenbythetide

Extended info
Line - up:

Andrew Workman - Bass (Beyond Grace, ex-Threnody, ex-Bloodguard)
Eric Revill - Guitars
Martin Clarke - Guitars
Phil Illsley - Vocals (Abduction, ex-Lordaeron, Death Tripper, ex-Cruel Humanity)
Ed Gorrod - Drums (Beyond Grace, ex-Threnody, ex-Bloodguard)



Technical info

Input File: 2 Grave Lessons.mp3
Channels : 2
Sample Rate : 44100
Precision : 16-bit
Duration : 00:04:38.15 = 12266591 samples = 20861.5 CDDA sectors
File Size : 11.1M
Bit Rate : 320k
Sample Encoding: MPEG audio (layer I, II or III)
Comments :
Title=Grave Lessons
Artist=Taken By The Tide
Album=Revenge
Tracknumber=2
Year=2018
Genre=Technical Metalcore



[ Hidden Text ]

Powered by Invision Power Board
© Invision Power Services