Printable Version of Topic

Click here to view this topic in its original format

Metal Area - Extreme Music Portal _ Archive _ Pagan Eternal - Goatlord Devastation [demo] (2001)

Posted by: Borderline1991 Feb 2 2018, 11:23:01

http://metalarea.org/images/audiocovers/2018_Feb/acov_tid301368.jpg

*Artist: Pagan Eternal
*Album: Goatlord Devastation [demo]
*Year: 2001
*Genre: Black Metal
*Country: France
*Format: mp3@CBR320kbps
*Size: 69MB

Tracklist:
1. The Mirror of Apocalypse 00:50
2. Celebration of the Nightrealm 06:33
3. Of Dark and Eternal Night 05:00
4. Remembrance 08:51
5. A Shade Within 08:34
******************************
Total playing time: 29:48

Extended info
Self-released tape limited to 333 hand-numbered copies.
Tape rip + Scans.


Technical info

Input File: 02 Celebration of the Nightrealm.mp3
Channels : 2
Sample Rate : 44100
Precision : 16-bit
Duration : 00:06:33.95 = 17373239 samples = 29546.3 CDDA sectors
File Size : 15.8M
Bit Rate : 320k
Sample Encoding: MPEG audio (layer I, II or III)
Comments :
Title=Celebration of the Nightrealm
Artist=Pagan Eternal
Album=Goatlord Devastation
Tracknumber=2
Year=2001
Genre=Black Metal



[ Hidden Text ]

Posted by: SyncestrA Feb 2 2018, 17:32:03

Borderline1991
Thanks a lot for quality! I had only 128 kbps before. Great demo!

Posted by: An225 Mar 21 2019, 20:17:49

QUOTE(SyncestrA @ Feb 2 2018, 17:32:03) *
Borderline1991
Thanks a lot for quality! I had only 128 kbps before. Great demo!


Funny.
With this tape, it does not matter if it's 128 or 320.
The quality of the tape is not big.

Posted by: Borderline1991 Mar 22 2019, 06:23:15

QUOTE(An225 @ Mar 21 2019, 20:17:49) *
Funny.
With this tape, it does not matter if it's 128 or 320.
The quality of the tape is not big.
I should had probably exported the rip of this tape in CBR@192, higher than that is really almost pointless because of the nature of the item - it's an old, cheap tape of low quality (which is normal for tapes of that era in this kind of BM music). Rips like this are rarely worth keeping in lossless or very high bitrate lossy. I probably just exported in 320 because people on metalarea seem to like music @ 320 smile1.gif

Still, I find lower quality sound to be a part of it's charm, real Black Metal was never about good production and sound, it was about passion, simplicity and honesty and that's what this demo is. I think Pagan Eternal is a good band.

Powered by Invision Power Board
© Invision Power Services