Printable Version of Topic

Click here to view this topic in its original format

Metal Area - Extreme Music Portal _ Archive _ Blame - Almanac [ep] (2018)

Posted by: Samaritianin Feb 18 2018, 10:26:53

https://metalarea.org/images/audiocovers/2018_Feb/acov_tid302150.jpg

*Artist: Blame
*Album: Almanac [ep]
*Year: 2018
*Genre: Technical Death Metal
*Country: Ukraine
*Format: mp3@CBR320kbps
*Size: 46MB

Tracklist:
1. War 02:35
2. Chalice 03:19
3. Eternity 02:18
4. Almanac 03:10
5. Desires 02:51
6. Gaia 02:18
7. Victory 02:52
******************************
Total playing time: 19:23

https://blameua.bandcamp.com/album/almanac
https://vk.com/blamemetal

Extended info
GooglPlay Rip


Technical info

Input File: 02 - Chalice.mp3
Channels : 2
Sample Rate : 44100
Precision : 16-bit
Duration : 00:03:19.31 = 8789571 samples = 14948.2 CDDA sectors
File Size : 8.13M
Bit Rate : 326k
Sample Encoding: MPEG audio (layer I, II or III)
Comments :
Title=Chalice
Artist=Blame
Album=Almanac
Tracknumber=02/07
Year=2018
Genre=Technical Death Metal



[ Hidden Text ]

Posted by: aesteticvice Feb 18 2018, 11:51:33

напористый дэткор, техникал врядли

Posted by: yashidza May 5 2018, 16:29:53

спасибо
есть возможность перезалить 2014 ?

Posted by: An225 May 5 2019, 19:19:49

From the web: [ Hidden Text ]

Powered by Invision Power Board
© Invision Power Services