Printable Version of Topic

Click here to view this topic in its original format

Metal Area - Extreme Music Portal _ Archive _ Life Of Scars - When The Devil Walks In (2018)

Posted by: Samaritianin Sep 20 2018, 19:12:56

http://metalarea.org/images/audiocovers/2018_Sep/acov_tid310854.jpg

*Artist: Life Of Scars
*Album: When The Devil Walks In
*Year: 2018
*Genre: Death/Thrash Metal
*Country: United States
*Format: mp3@CBR320kbps
*Size: 81MB

Tracklist:
1. Dwi Intro 01:07
2. When the Devil Walks In 04:27
3. With My Last Breath 03:53
4. There's No Coming Down 05:11
5. Just Because I Can 03:00
6. All Is Lost 05:11
7. Give Me a Reason 04:04
8. Let There Be Darkness 05:01
9. Legacy of Pain 06:16
******************************
Total playing time: 38:10

https://www.facebook.com/LifeOfScars/

Extended info
Anthony Walker Drums
See also: Demonseed, ex-Amoricide, ex-Unchecked Aggression, ex-Vitality, ex-Hammer Witch, Motorbreath, ex-Interment, ex-Prophecy, ex-Alcohollica (USA), ex-Creophagy
Michael Huebner Guitars
See also: ex-Hell Goat, ex-Black Summer Rain
Wayne Abney Vocals, Bass
See also: ex-Hammer Witch, ex-Warbeast (live), ex-Null & Void


Technical info

Input File: 03 - With My Last Breath.mp3
Channels : 2
Sample Rate : 44100
Precision : 16-bit
Duration : 00:03:53.03 = 10276403 samples = 17476.9 CDDA sectors
File Size : 9.40M
Bit Rate : 323k
Sample Encoding: MPEG audio (layer I, II or III)
Comments :
Title=With My Last Breath
Artist=Life Of Scars
Album=When The Devil Walks In
Tracknumber=03/09
Year=2018
Discnumber=1/1



[ Hidden Text ]

Posted by: Samaritianin Sep 21 2018, 09:30:16

Cloud Mail 320
[ Hidden Text ]

Posted by: kastrup Jan 23 2022, 11:28:28

Please re-up pray.gif pray.gif

Powered by Invision Power Board
© Invision Power Services