Printable Version of Topic

Click here to view this topic in its original format

Metal Area - Extreme Music Portal _ Archive _ Razgate - Welcome Mass Hysteria (2018)

Posted by: Samaritianin Nov 16 2018, 01:45:54

http://metalarea.org/images/audiocovers/2018_Nov/acov_tid313080.jpg

*Artist: Razgate
*Album: Welcome Mass Hysteria
*Year: 2018
*Genre: Thrash Metal
*Country: Italy
*Format: mp3@CBR320kbps
*Size: 117MB

Tracklist:
1. Sacrifice/Rebirth
2. Sweetest Poison
3. Welcome Mass Hysteria
4. The Agony Is Real
5. Sons of Rage
6. Light Up the Flame
7. Ride for a Fall
8. Skinwalker
9. Face of Apocalypse
10. 1348
******************************
Total playing time: 51:06

https://www.facebook.com/Razgateband/

Extended info
Niccolò Olivieri Bass
Edoardo Natalini Drums
Giacomo James Burgassi Guitars, Vocals
Francesco Monaci Guitars (lead)


Technical info

Input File: 03 Welcome Mass Hysteria.mp3
Channels : 2
Sample Rate : 44100
Precision : 16-bit
Duration : 00:04:45.41 = 12586405 samples = 21405.5 CDDA sectors
File Size : 11.4M
Bit Rate : 320k
Sample Encoding: MPEG audio (layer I, II or III)
Comments :
Title=Welcome Mass Hysteria
Artist=Razgate
Album=Welcome Mass Hysteria
Tracknumber=3/10
Year=2018
Genre=Thrash Metal
Discnumber=1/1



[ Hidden Text ]

Posted by: Samaritianin Nov 16 2018, 18:16:03

Cloud Mail 320
[ Hidden Text ]

Posted by: dm666 Jan 26 2019, 15:23:07

Razgate - Welcome Mass Hysteria (2018, Punishment 18 Records (P18R 142))





Lossless: FLAC (image+.cue+.log) + Covers


[ Hidden Text ]

Posted by: satanist666 Oct 13 2021, 15:59:00

RAZGATE:
https://razgatethrash.bandcamp.com/album/welcome-mass-hysteria

Powered by Invision Power Board
© Invision Power Services