Printable Version of Topic

Click here to view this topic in its original format

Metal Area - Extreme Music Portal _ Archive _ Zmora - W Głębinach Nocy Niepojętej [ep] (2018)

Posted by: lestllk Dec 3 2018, 16:13:01

https://metalarea.org/images/audiocovers/2018_Dec/acov_tid313721.jpg

*Artist: http://metalarea.org/forum/index.php?showtopic=313723
*Album: W Głębinach Nocy Niepojętej [ep]
*Year: 2018
*Genre: Black Metal
*Country: Poland
*Format: mp3@CBR320kbps
*Size: 86MB

Tracklist:
1. Już się budzą duchy
2. Jak zgasło słońce (W noc czarną odejdę cz. II)
3. Zimnym wichrem spętany... martwy brzask
4. Wisielcza pieśń
5. W dzikich ogrodach nocy
6. I nastała ciemność...
7. Lodowate pustkowia nicości
******************************
Total playing time: 37:32

Extended info
Werewolf Promotion


Technical info

Input File: 05 W dzikich ogrodach nocy.mp3
Channels : 2
Sample Rate : 44100
Precision : 16-bit
Duration : 00:04:32.08 = 11998728 samples = 20406 CDDA sectors
File Size : 10.9M
Bit Rate : 320k
Sample Encoding: MPEG audio (layer I, II or III)
Comments :
Title=W dzikich ogrodach nocy
Artist=Zmora
Album=W głębinach nocy niepojętej
Tracknumber=5
Year=2018



[ Hidden Text ]

Posted by: Абигор Dec 3 2018, 16:43:20

Mirror -
[ Hidden Text ]

Posted by: judaz Dec 3 2018, 16:53:16

Это великолепно.

Posted by: Sangreal Dec 3 2018, 16:57:12

Заслушано до дыр на ютупе.
Вот такие пшеки мне по душе.

Posted by: garmonbozia Dec 3 2018, 18:01:26

а ведь вспоминаются фразы людей "польский блэк не нужен"
не нужен, а как же 25.gif
НУЖЕН.

Posted by: vosmidesijatye Dec 3 2018, 18:09:29

ЦИТАТА(garmonbozia @ Dec 3 2018, 21:01:26) *
а ведь вспоминаются фразы людей "польский блэк не нужен"
не нужен, а как же 25.gif
НУЖЕН.


Ну то другое, там все Кригсмашину обсуждали 25.gif

Posted by: Baalslayer Dec 4 2018, 02:07:18


Posted by: garmonbozia Dec 13 2018, 09:19:02

правильные клавишные набурзумили, редкие, но меткие.
отличный зимний альбом.

Posted by: Tiamatus Dec 13 2018, 10:17:08

ЦИТАТА(garmonbozia @ Dec 3 2018, 22:01:26) *
а ведь вспоминаются фразы людей "польский блэк не нужен"
не нужен, а как же 25.gif
НУЖЕН.

Такое только немытая собака, которая непонятно как оказалась в блэке, сказать может.

Posted by: garmonbozia Dec 13 2018, 11:03:09

вот только не надо с собаками сравнивать, они лучше людей.

Posted by: vosmidesijatye Dec 13 2018, 11:07:00

ЦИТАТА(garmonbozia @ Dec 13 2018, 14:03:09) *
они лучше людей.


Как и все животные.

Posted by: garmonbozia Dec 13 2018, 11:18:25

йа тут одному аудиофилонебожителю уже говорил, что люди - живтоне и есть.
нас от них отделяет только истинно свойственный нам долбоипизм. gop_spb.gif

Posted by: Tiamatus Dec 13 2018, 11:34:29

ЦИТАТА(garmonbozia @ Dec 13 2018, 15:03:09) *
вот только не надо с собаками сравнивать, они лучше людей.

Varg хуже собаки значит?

Posted by: vosmidesijatye Dec 13 2018, 11:35:14

ЦИТАТА(Tiamatus @ Dec 13 2018, 14:34:29) *
Varg хуже собаки значит?


А он то тут ваще при чем? fear.gif

Posted by: Фо Dec 13 2018, 11:38:17


Posted by: garmonbozia Dec 13 2018, 11:48:58

ЦИТАТА(Tiamatus @ 13th December 2018 - 15:34:29) *
Varg хуже собаки значит?

евронимус тоже.

Posted by: Tiamatus Dec 13 2018, 13:04:01

ЦИТАТА(garmonbozia @ Dec 13 2018, 15:48:58) *
евронимус тоже.

Такое может сказать только вонючая псина, которая непонятно как оказалась в блэке!

Posted by: garmonbozia Dec 13 2018, 13:06:28

ЦИТАТА(Tiamatus @ 13th December 2018 - 17:04:01) *
Такое может сказать только вонючая псина, которая непонятно как оказалась в блэке!

пластинку смени, псинофоб)

Posted by: wolverine Dec 13 2018, 13:08:08

Zmora never disappoints. Great release!

Posted by: rammstein888 Dec 16 2018, 22:37:52

Вспомнился старый фильм:
Ты животное
Нет, хуже, я человек

Posted by: nsk2008 Dec 20 2018, 21:42:11

Когда начался второй трек, подумал, что кавер на Blashyrkh.

Posted by: rammstein888 Feb 7 2019, 19:14:24

Почти 2 месяца не доходили руки, а жаль, хороши черти. Классический Блэк как бальзам на душу. true_black.gif


У кого есть lossless? Поделитесь.

Posted by: antonovivan Apr 6 2020, 11:59:41

Лося, видимо, нет, а может у кого-то тексты есть? На архивах, к сожалению, не обнаружил. Здорово парни играют! true_black.gif

Powered by Invision Power Board
© Invision Power Services