Printable Version of Topic

Click here to view this topic in its original format

Metal Area - Extreme Music Portal _ Archive _ Toughguy & Born Backwards - Toughguy/Born Backwards [split] (2019)

Posted by: necroscum Apr 30 2019, 13:58:30

https://metalarea.org/images/audiocovers/2019_Apr/acov_tid321227.jpg

*Artist: Toughguy & Born Backwards
*Album: Toughguy/Born Backwards [split]
*Year: 2019
*Genre: Goregrind | Grindcore/Goregrind
*Country: Russian Federation | United States
*Format: mp3@CBR320kbps
*Size: 20MB

Tracklist:
Toughguy:
01. Backpack Full Of Shit 01:09
02. Beans For Breakfast Once Again 00:57
03. Goreruption 01:11
04. Masked Toughguy (Haggus Cover) 01:00
Born Backwards:
05. Grotesque Droppings 01:03
06. Kickflip Beheading 00:38
07. Butter Knife Stabbing 01:04
08. I Stubbed My Toe While Aborting Cats 01:01
******************************
Total playing time: 8:03

https://www.facebook.com/bornbackwardschicago/
https://bornbackwards.bandcamp.com/album/split-w-toughguy
https://www.youtube.com/watch?v=Y2NK90XikCc

Technical info

Input File: 02. BEANS FOR BREAKFAST ONCE AGAIN.mp3
Channels : 2
Sample Rate : 44100
Precision : 16-bit
Duration : 00:00:57.58 = 2539146 samples = 4318.28 CDDA sectors
File Size : 2.52M
Bit Rate : 350k
Sample Encoding: MPEG audio (layer I, II or III)
Comments :
Title=BEANS FOR BREAKFAST ONCE AGAIN
Artist=TOUGHGUY
Album=Split w/ Born Backwards
Tracknumber=2
Year=2019



[ Hidden Text ]

Posted by: Lanceatum Dec 24 2019, 06:08:58

Reupload please.

Posted by: Lanceatum Mar 3 2020, 00:01:27

Перезалейте, пожалуйста.

Posted by: Lanceatum May 21 2020, 22:11:01

Reupload please.

Powered by Invision Power Board
© Invision Power Services