Printable Version of Topic

Click here to view this topic in its original format

Metal Area - Extreme Music Portal _ Archive _ Chaos And Technocracy - Chaos And Technocracy [ep] (2017)

Posted by: Proteus_666 Jun 22 2019, 00:30:57

http://metalarea.org/images/audiocovers/2019_Jun/acov_tid323311.jpg

*Artist: Chaos And Technocracy
*Album: Chaos And Technocracy [ep]
*Year: 2017
*Genre: Progressive Thrash Metal
*Country: Italy
*Format: mp3@CBR192kbps
*Size: 27MB

Tracklist:
1. The Others 03:28
2. A Better World 04:58
3. Believe Me 06:28
4. Savior 04:49
******************************
Total playing time: 19:43

https://www.facebook.com/ChaosandTechnocracy/

Technical info

Input File: 01-The Others.mp3
Channels : 2
Sample Rate : 44100
Precision : 16-bit
Duration : 00:03:28.00 = 9172712 samples = 15599.9 CDDA sectors
File Size : 4.99M
Bit Rate : 192k
Sample Encoding: MPEG audio (layer I, II or III)
Comments :
Title=The Others
Artist=Chaos And Technocracy (Ita)
Album=Chaos And Technocracy
Tracknumber=01
Year=2017
Genre=Metal



[ Hidden Text ]

Posted by: Wotanwatch Apr 8 2021, 11:58:21

Перезалейте,пожалуйста

Powered by Invision Power Board
© Invision Power Services